+ ShareSpark.net »  :::: Bollywood Zone » Bollywood Movies (Original Rips) » Bollywood Movies (1945-2000)
|- Benaam Badsha 1991 Hindi 720p HDRip


Benaam Badsha 1991 Hindi 720p HDRip

0 Members and 1 Guest are viewing this topic.

November 25, 2016, 03:11:47 PM
  • Devoted Member
  • **
  • Topic Author
  • Thank You: 93
  • Reputation: 13
  • Activity:
    30.2%
  • Country: us
  • Posts: 125
  • Topics: 125
  • Join Date: Nov 2016
  • ShareSpark Member
Torrable - One stop for all your download & upload needs. It's smart, easy and free.
:title:


Benaam Badsha 1991 Hindi 720p HDRip




:info:


Format                                   : Matroska
Format version                           : Version 4 / Version 2
File size                                : 1.22 GiB
Duration                                 : 2 h 52 min
Overall bit rate                         : 1 014 kb/s
Movie name                               : Downloaded From -> S.S
Encoded date                             : UTC 2016-11-21 04:56:34
Writing application                      : mkvmerge v8.2.0 ('World of Adventure') 64bit
Writing library                          : libebml v1.3.1 + libmatroska v1.4.2

Video
ID                                       : 1
Format                                   : AVC
Format/Info                              : Advanced Video Codec
Format profile                           : [email protected]
Format settings, CABAC                   : Yes
Format settings, ReFrames                : 4 frames
Codec ID                                 : V_MPEG4/ISO/AVC
Duration                                 : 2 h 52 min
Bit rate                                 : 900 kb/s
Width                                    : 1 280 pixels
Height                                   : 720 pixels
Display aspect ratio                     : 16:9
Frame rate mode                          : Constant
Frame rate                               : 23.976 (24000/1001) FPS
Color space                              : YUV
Chroma subsampling                       : 4:2:0
Bit depth                                : 8 bits
Scan type                                : Progressive
Bits/(Pixel*Frame)                       : 0.041
Stream size                              : 1.08 GiB (89%)
Title                                    : Downloaded From -> S.S
Writing library                          : x264 core 142 r2479 dd79a61
Default                                  : Yes
Forced                                   : No
Color range                              : Limited
Color primaries                          : BT.709
Transfer characteristics                 : BT.709
Matrix coefficients                      : BT.709

Audio
ID                                       : 2
Format                                   : AAC
Format/Info                              : Advanced Audio Codec
Format profile                           : LC
Codec ID                                 : A_AAC
Duration                                 : 2 h 52 min
Bit rate                                 : 112 kb/s
Channel(s)                               : 2 channels
Channel positions                        : Front: L R
Sampling rate                            : 22.05 kHz
Frame rate                               : 21.533 FPS (1024 spf)
Compression mode                         : Lossy
Delay relative to video                  : -46 ms
Stream size                              : 138 MiB (11%)
Title                                    : Downloaded From -> S.S
Default                                  : Yes
Forced                                   : No

Text
ID                                       : 3
Format                                   : UTF-8
Codec ID                                 : S_TEXT/UTF8
Codec ID/Info                            : UTF-8 Plain Text
Duration                                 : 1 h 1 min
Bit rate                                 : 0 b/s
Count of elements                        : 3
Stream size                              : 372 Bytes (0%)
Title                                    : Downloaded From -> S.S
Default                                  : Yes
Forced                                   : No





:ss:




:download:


Watch Online








Single link









Share this topic on FacebookShare this topic on GoogleShare this topic on MySpaceShare this topic on TwitterShare this topic on Yahoo




Tags:
 

Related Topics

  Subject / Started by Replies Last post
3 Replies
534 Views
Last post September 02, 2013, 07:34:35 PM
by sme_sarkar
0 Replies
280 Views
Last post May 07, 2014, 08:11:27 PM
by Best
1 Replies
388 Views
Last post August 20, 2014, 03:41:58 PM
by Dudelucifer
0 Replies
379 Views
Last post February 28, 2016, 04:38:44 AM
by dhencoder
0 Replies
247 Views
Last post November 18, 2016, 11:46:04 AM
by sharing_caring




Back to top