+ ShareSpark.net »  :::: Dubbed Zone (Dubbed English in Hindi) » English Movies Dubbed in Hindi » 3D Movies
|- Independence Day Resurgence (2016) 3D HOU 1080p BDRip In Dual Audio 5.1Ch(Hindi-Eng)~Vision


Independence Day Resurgence (2016) 3D HOU 1080p BDRip In Dual Audio 5.1Ch(Hindi-Eng)~Vision

0 Members and 1 Guest are viewing this topic.

November 19, 2016, 08:23:34 AM
  • Admin
  • Legend Member
  • ****
  • Topic Author
  • Thank You: 3351
  • Reputation: 1203
  • Activity:
    3.2%
  • Posts: 5921
  • Topics: 3330
  • Join Date: Apr 2012
  • No Tears For The Dead
  • Expertises:
  • All Rounder In Each Field








General

Complete name : Independence Day Resurgence (2016) 3D HOU 1080p BDRip In Dual Audio 5.1Ch(Hindi-Eng)~Vision.mp4
Format : Mp4
Format version : Version 4 / Version 2
File size : 5.13 GiB
Duration : 1 h 59 min
Overall bit rate : 6 137 kb/s


Video
ID : 1
Format : AVC
Format/Info : Advanced Video Codec
Format profile : [email protected]
Format settings, CABAC : Yes
Format settings, ReFrames : 4 frames
Codec ID : V_MPEG4/ISO/AVC
Duration : 1 h 59 min
Bit rate : 5 500 kb/s
Width : 1 920 pixels
Height : 1 080 pixels
Display aspect ratio : 16:9
Frame rate mode : Constant
Frame rate : 23.976 (24000/1001) FPS
Color space : YUV
Chroma subsampling : 4:2:0
Bit depth : 8 bits
Scan type : Progressive
Bits/(Pixel*Frame) : 0.111
Stream size : 4.60 GiB (90%)
Writing library : x264 core 142 r2479 dd79a61Default : Yes
Forced : No
Color range : Limited
Color primaries : BT.709
Transfer characteristics : BT.709
Matrix coefficients : BT.709

Audio #1
ID : 2
Format : AAC
Format/Info : Advanced Audio Codec
Format profile : LC
Codec ID : A_AAC
Duration : 1 h 59 min
Bit rate : 317 kb/s
Channel(s) : 6 channels
Channel positions : Front: L C R, Side: L R, LFE
Sampling rate : 48.0 kHz
Frame rate : 46.875 FPS (1024 spf)
Compression mode : Lossy
Delay relative to video : -83 ms
Stream size : 272 MiB (5%)
Title : Vision~Hindi
Language : Hindi
Default : Yes
Forced : Yes

Audio #2
ID : 3
Format : AAC
Format/Info : Advanced Audio Codec
Format profile : LC
Codec ID : A_AAC
Duration : 1 h 59 min
Bit rate : 317 kb/s
Channel(s) : 6 channels
Channel positions : Front: L C R, Side: L R, LFE
Sampling rate : 48.0 kHz
Frame rate : 46.875 FPS (1024 spf)
Compression mode : Lossy
Delay relative to video : -83 ms
Stream size : 272 MiB (5%)
Title : Vision~English
Language : English
Default : No
Forced : No







 :sample:





 :download:


Share this topic on FacebookShare this topic on GoogleShare this topic on MySpaceShare this topic on TwitterShare this topic on Yahoo



Thanks given by:


Tags:
 

Related Topics





Back to top