+ ShareSpark.net »  :::: Dubbed Zone (Dubbed English in Hindi) » English Movies Dubbed in Hindi » 3D Movies
|- Finding Dorry (2016) 3D HOU 1080p BDrip in Dual Audio 5.1ch (Hindi-Eng)-Vision


Finding Dorry (2016) 3D HOU 1080p BDrip in Dual Audio 5.1ch (Hindi-Eng)-Vision

0 Members and 1 Guest are viewing this topic.

November 11, 2016, 10:03:42 PM
  • Admin
  • Legend Member
  • ****
  • Topic Author
  • Thank You: 3280
  • Reputation: 1185
  • Activity:
    21.4%
  • Posts: 5886
  • Topics: 3310
  • Join Date: Apr 2012
  • No Tears For The Dead
  • Expertises:
  • All Rounder In Each Field
Torrable - One stop for all your download & upload needs. It's smart, easy and free.







General

Complete name : Finding Dorry (2016) 3D HOU 1080p BDrip in Dual Audio 5.1ch (Hindi-Eng)~Vision.mp4
Format : MP4
Format version : Version 4 / Version 2
File size : 4.16 GiB
Duration : 1 h 37 min
Overall bit rate : 6 139 kb/s
Movie name : Ripper~Vision

Video
ID : 1
Format : AVC
Format/Info : Advanced Video Codec
Format profile : [email protected]
Format settings, CABAC : Yes
Format settings, ReFrames : 4 frames
Codec ID : V_MPEG4/ISO/AVC
Duration : 1 h 37 min
Bit rate : 5 500 kb/s
Width : 1 920 pixels
Height : 1 080 pixels
Display aspect ratio : 16:9
Frame rate mode : Constant
Frame rate : 23.976 (24000/1001) FPS
Color space : YUV
Chroma subsampling : 4:2:0
Bit depth : 8 bits
Scan type : Progressive
Bits/(Pixel*Frame) : 0.111
Stream size : 3.73 GiB (90%)
Writing library : x264 core 142 r2479 dd79a61Default
Forced : No
Color range : Limited
Color primaries : BT.709
Transfer characteristics : BT.709
Matrix coefficients : BT.709

Audio #1
ID : 2
Format : AAC
Format/Info : Advanced Audio Codec
Format profile : LC
Codec ID : A_AAC
Duration : 1 h 37 min
Bit rate : 317 kb/s
Channel(s) : 6 channels
Channel positions : Front: L C R, Side: L R, LFE
Sampling rate : 48.0 kHz
Frame rate : 46.875 FPS (1024 spf)
Compression mode : Lossy
Stream size : 220 MiB (5%)
Title : Vision (Hindi)
Language : Hindi
Default : Yes
Forced : Yes

Audio #2
ID : 3
Format : AAC
Format/Info : Advanced Audio Codec
Format profile : LC
Codec ID : A_AAC
Duration : 1 h 37 min
Bit rate : 317 kb/s
Channel(s) : 6 channels
Channel positions : Front: L C R, Side: L R, LFE
Sampling rate : 48.0 kHz
Frame rate : 46.875 FPS (1024 spf)
Compression mode : Lossy
Stream size : 220 MiB (5%)
Title : Vision (English)
Language : English
Default : No
Forced : No

Menu
00:00:00.000 : en:1 - 0:00:00
00:02:35.864 : en:2 - 0:02:36
00:06:50.327 : en:3 - 0:06:50
00:10:53.278 : en:4 - 0:10:53
00:13:33.271 : en:5 - 0:13:33
00:15:25.258 : en:6 - 0:15:25
00:17:03.439 : en:7 - 0:17:03
00:19:35.591 : en:8 - 0:19:35
00:21:35.377 : en:9 - 0:21:35
00:24:58.789 : en:10 - 0:24:59
00:27:08.669 : en:11 - 0:27:09
00:30:33.290 : en:12 - 0:30:33
00:35:00.390 : en:13 - 0:35:00
00:37:52.145 : en:14 - 0:37:52
00:40:18.124 : en:15 - 0:40:18
00:41:06.756 : en:16 - 0:41:07
00:42:30.548 : en:17 - 0:42:30
00:46:03.511 : en:18 - 0:46:03
00:48:41.794 : en:19 - 0:48:42
00:50:27.942 : en:20 - 0:50:28
00:55:06.762 : en:21 - 0:55:07
00:57:05.922 : en:22 - 0:57:06
01:00:41.429 : en:23 - 1:00:41
01:04:33.036 : en:24 - 1:04:33
01:10:36.941 : en:25 - 1:10:37
01:12:28.386 : en:26 - 1:12:28
01:14:09.945 : en:27 - 1:14:10
01:18:26.577 : en:28 - 1:18:26
01:26:49.413 : en:29 - 1:26:49








 :sample:







 :download:





Share this topic on FacebookShare this topic on GoogleShare this topic on MySpaceShare this topic on TwitterShare this topic on Yahoo



Thanks given by:


November 13, 2016, 03:55:34 AM
Reply #1
  • Team SSX
  • Legend Member
  • ***
  • Thank You: 931
  • Reputation: 146
  • Activity:
    100%
  • Country: in
  • Posts: 1819
  • Topics: 1262
  • Join Date: Sep 2016
  • (: EnJOy ThE LiFe :)

Tags:
 

Related Topics





Back to top