+ ShareSpark.net »  :::: Bollywood Zone » Indian TV Shows
|- Koffee With Karan (2016) SEASON 05 All Sizes - All Rips - [Episode 13 Added]


Koffee With Karan (2016) SEASON 05 All Sizes - All Rips - [Episode 13 Added]

0 Members and 1 Guest are viewing this topic.

December 12, 2016, 06:04:08 PM
Reply #20
  • Devoted Member
  • **
  • Thank You: 95
  • Reputation: 14
  • Activity:
    0%
  • Country: us
  • Posts: 125
  • Topics: 129
  • Join Date: Nov 2016
  • ShareSpark Member
:title:

Koffee.With.Karan.(2016).S05.Ep06.720p.WEB-DL.x264.AAC








:ss:






:download:


Watch Online






Single link








December 20, 2016, 09:56:40 AM
Reply #21
  • *****************
  • Head Admin
  • Legend Member
  • *****
  • Topic Author
  • Thank You: 4925
  • Reputation: 2377
  • Activity:
    100%
  • Country: in
  • Posts: 16550
  • Topics: 10014
  • Join Date: Mar 2012
  • The Time Is Now......
Koffee With Karan
(2016)
404p-720p-900p-1080p - Se5 - Epi6 - x264 - Team IcTv







404p


720p


900p


1080p

December 20, 2016, 09:58:45 AM
Reply #22
  • *****************
  • Head Admin
  • Legend Member
  • *****
  • Topic Author
  • Thank You: 4925
  • Reputation: 2377
  • Activity:
    100%
  • Country: in
  • Posts: 16550
  • Topics: 10014
  • Join Date: Mar 2012
  • The Time Is Now......
Koffee With Karan
(2016)
404p - 720p - 900p - 1080p - Se5 - Epi7 - x264 - Team IcTv









404p



720p



1080p
« Last Edit: December 20, 2016, 10:00:45 AM by -Ð@Rk.ÐèVi£- »

December 20, 2016, 04:50:30 PM
Reply #23
  • Elite Member
  • ***
  • Thank You: 478
  • Reputation: 167
  • Activity:
    0%
  • Country: bd
  • Posts: 411
  • Topics: 105
  • Join Date: Feb 2013
  • ShareSpark Member

December 26, 2016, 09:34:15 AM
Reply #24
  • *****************
  • Head Admin
  • Legend Member
  • *****
  • Topic Author
  • Thank You: 4925
  • Reputation: 2377
  • Activity:
    100%
  • Country: in
  • Posts: 16550
  • Topics: 10014
  • Join Date: Mar 2012
  • The Time Is Now......
Koffee With Karan
(2016)
404p-720p-900p-1080p - Se5 - Epi8 - x264 - Team IcTv








404p


720p


900p


1080p
« Last Edit: December 26, 2016, 04:56:49 PM by -Ð@Rk.ÐèVi£- »

December 26, 2016, 04:23:38 PM
Reply #25
  • Semi Newbie
  • **
  • Thank You: 0
  • Reputation: 0
  • Activity:
    5%
  • Country: in
  • Posts: 32
  • Topics: 0
  • Join Date: Dec 2016
  • ShareSpark Member
Bro Episode 8 has Bigg Boss link in 720p link
please check 

December 26, 2016, 04:57:16 PM
Reply #26
  • *****************
  • Head Admin
  • Legend Member
  • *****
  • Topic Author
  • Thank You: 4925
  • Reputation: 2377
  • Activity:
    100%
  • Country: in
  • Posts: 16550
  • Topics: 10014
  • Join Date: Mar 2012
  • The Time Is Now......

December 26, 2016, 06:29:19 PM
Reply #27
  • Elite Member
  • ***
  • Thank You: 478
  • Reputation: 167
  • Activity:
    0%
  • Country: bd
  • Posts: 411
  • Topics: 105
  • Join Date: Feb 2013
  • ShareSpark Member

January 02, 2017, 10:18:01 AM
Reply #28
  • Semi Newbie
  • **
  • Thank You: 0
  • Reputation: 0
  • Activity:
    5%
  • Country: in
  • Posts: 32
  • Topics: 0
  • Join Date: Dec 2016
  • ShareSpark Member

January 02, 2017, 12:06:35 PM
Reply #29
  • Global Moderator
  • Legend Member
  • *****
  • Thank You: 1522
  • Reputation: 333
  • Activity:
    24.4%
  • Country: in
  • Posts: 3093
  • Topics: 1933
  • Join Date: Dec 2013
  • ShareSpark Member
   
Koffee With.Karan (2016) S05 Ep09 720p WEB-DL x264 AAC - Hon3yHD
   



Poster















General
Unique ID                                : 218896539061657132271417615612328828561 (0xA4ADF09F43474BE3906A2C9707E05E91)
Format                                   : Matroska
Format version                           : Version 4 / Version 2
File size                                : 669 MiB
Duration                                 : 46 min 7 s
Overall bit rate                         : 2 027 kb/s
Encoded date                             : UTC 2017-01-01 20:56:33
Writing application                      : mkvmerge v9.4.2 ('So High') 64bit
Writing library                          : libebml v1.3.4 + libmatroska v1.4.5

Video
ID                                       : 1
Format                                   : AVC
Format/Info                              : Advanced Video Codec
Format profile                           : Main@L3.1
Format settings, CABAC                   : Yes
Format settings, ReFrames                : 1 frame
Format settings, GOP                     : M=1, N=25
Codec ID                                 : V_MPEG4/ISO/AVC
Duration                                 : 46 min 7 s
Bit rate mode                            : Constant
Bit rate                                 : 2 000 kb/s
Width                                    : 1 280 pixels
Height                                   : 720 pixels
Display aspect ratio                     : 16:9
Frame rate mode                          : Constant
Frame rate                               : 25.000 FPS
Color space                              : YUV
Chroma subsampling                       : 4:2:0
Bit depth                                : 8 bits
Scan type                                : Progressive
Bits/(Pixel*Frame)                       : 0.087
Stream size                              : 648 MiB (97%)
Default                                  : Yes
Forced                                   : No

Audio
ID                                       : 2
Format                                   : AAC
Format/Info                              : Advanced Audio Codec
Format profile                           : LC
Codec ID                                 : A_AAC
Duration                                 : 46 min 7 s
Bit rate                                 : 61.4 kb/s
Channel(s)                               : 2 channels
Channel positions                        : Front: L R
Sampling rate                            : 48.0 kHz
Frame rate                               : 46.875 FPS (1024 spf)
Compression mode                         : Lossy
Stream size                              : 20.3 MiB (3%)
Default                                  : Yes
Forced                                   : No



All Credit Goes To Orignal Uploader







      










      
      
« Last Edit: January 02, 2017, 12:07:50 PM by тнє ωαll 81317 »


January 29, 2017, 10:11:08 PM
Reply #30
  • *****************
  • Head Admin
  • Legend Member
  • *****
  • Topic Author
  • Thank You: 4925
  • Reputation: 2377
  • Activity:
    100%
  • Country: in
  • Posts: 16550
  • Topics: 10014
  • Join Date: Mar 2012
  • The Time Is Now......
Koffee.With.Karan.(2016).S05.Ep09.1080p.WEB-DL.x264.AAC.-.Hon3yHD















January 29, 2017, 10:12:46 PM
Reply #31
  • *****************
  • Head Admin
  • Legend Member
  • *****
  • Topic Author
  • Thank You: 4925
  • Reputation: 2377
  • Activity:
    100%
  • Country: in
  • Posts: 16550
  • Topics: 10014
  • Join Date: Mar 2012
  • The Time Is Now......
Koffee.With.Karan.(2016).S05.Ep10.720p.WEB-DL.x264.AAC.-.Hon3yHD



































January 29, 2017, 10:13:55 PM
Reply #32
  • *****************
  • Head Admin
  • Legend Member
  • *****
  • Topic Author
  • Thank You: 4925
  • Reputation: 2377
  • Activity:
    100%
  • Country: in
  • Posts: 16550
  • Topics: 10014
  • Join Date: Mar 2012
  • The Time Is Now......
Koffee.With.Karan.(2016).S05.Ep10.1080p.WEB-DL.x264.AAC.-.Hon3yHD

















January 29, 2017, 10:15:09 PM
Reply #33
  • *****************
  • Head Admin
  • Legend Member
  • *****
  • Topic Author
  • Thank You: 4925
  • Reputation: 2377
  • Activity:
    100%
  • Country: in
  • Posts: 16550
  • Topics: 10014
  • Join Date: Mar 2012
  • The Time Is Now......
Koffee.With.Karan.(2016).S05.Ep11.720p.WEB-DL.x264.AAC.-.Hon3yHD















January 29, 2017, 10:16:06 PM
Reply #34
  • *****************
  • Head Admin
  • Legend Member
  • *****
  • Topic Author
  • Thank You: 4925
  • Reputation: 2377
  • Activity:
    100%
  • Country: in
  • Posts: 16550
  • Topics: 10014
  • Join Date: Mar 2012
  • The Time Is Now......
Koffee.With.Karan.(2016).S05.Ep11.1080p.WEB-DL.x264.AAC.-.Hon3yHD





















January 29, 2017, 10:17:24 PM
Reply #35
  • *****************
  • Head Admin
  • Legend Member
  • *****
  • Topic Author
  • Thank You: 4925
  • Reputation: 2377
  • Activity:
    100%
  • Country: in
  • Posts: 16550
  • Topics: 10014
  • Join Date: Mar 2012
  • The Time Is Now......
Koffee.With.Karan.(2016).S05.Ep12.720p.WEB-DL.x264.AAC.-.Hon3yHD


















January 29, 2017, 10:18:17 PM
Reply #36
  • *****************
  • Head Admin
  • Legend Member
  • *****
  • Topic Author
  • Thank You: 4925
  • Reputation: 2377
  • Activity:
    100%
  • Country: in
  • Posts: 16550
  • Topics: 10014
  • Join Date: Mar 2012
  • The Time Is Now......
Koffee.With.Karan.(2016-17).S05.Ep12.1080p.WEB-DL.x264.AAC.-.Hon3yHD























January 29, 2017, 10:19:37 PM
Reply #37
  • *****************
  • Head Admin
  • Legend Member
  • *****
  • Topic Author
  • Thank You: 4925
  • Reputation: 2377
  • Activity:
    100%
  • Country: in
  • Posts: 16550
  • Topics: 10014
  • Join Date: Mar 2012
  • The Time Is Now......
Koffee With Karan (2016) S05 Ep13 720p WEB-DL x264 AAC - Hon3yHD


Format                      : Matroska
Format version              : Version 4 / Version 2
File size                   : 707 MiB
Duration                    : 49mn 16s
Overall bit rate            : 2 007 Kbps
Encoded date                : UTC 2017-01-29 12:32:56
Writing application         : mkvmerge v8.7.0 ('All of the above') 64bit
Writing library             : libebml v1.3.3 + libmatroska v1.4.4

Video
ID                          : 1
Format                      : AVC
Format/Info                 : Advanced Video Codec
Format profile              : Main@L3.1
Format settings, CABAC      : Yes
Format settings, ReFrames   : 1 frame
Format settings, GOP        : M=1, N=25
Codec ID                    : V_MPEG4/ISO/AVC
Duration                    : 49mn 16s
Bit rate mode               : Constant
Bit rate                    : 2 000 Kbps
Width                       : 1 280 pixels
Height                      : 720 pixels
Display aspect ratio        : 16:9
Frame rate mode             : Constant
Frame rate                  : 25.000 fps
Color space                 : YUV
Chroma subsampling          : 4:2:0
Bit depth                   : 8 bits
Scan type                   : Progressive
Bits/(Pixel*Frame)          : 0.087
Stream size                 : 685 MiB (97%)
Default                     : Yes
Forced                      : No

Audio
ID                          : 2
Format                      : AAC
Format/Info                 : Advanced Audio Codec
Format profile              : LC
Codec ID                    : A_AAC
Duration                    : 49mn 16s
Bit rate                    : 61.4 Kbps
Channel(s)                  : 2 channels
Channel positions           : Front: L R
Sampling rate               : 48.0 KHz
Frame rate                  : 46.875 fps (1024 spf)
Compression mode            : Lossy
Stream size                 : 21.6 MiB (3%)
Default                     : Yes
Forced                      : No


































January 29, 2017, 10:20:25 PM
Reply #38
  • *****************
  • Head Admin
  • Legend Member
  • *****
  • Topic Author
  • Thank You: 4925
  • Reputation: 2377
  • Activity:
    100%
  • Country: in
  • Posts: 16550
  • Topics: 10014
  • Join Date: Mar 2012
  • The Time Is Now......
Koffee With Karan (2016) S05 Ep13 10800p WEB-DL x264 AAC - Hon3yHD

Format                      : Matroska
Format version              : Version 4 / Version 2
File size                   : 1.56 GiB
Duration                    : 49mn 16s
Overall bit rate            : 4 520 Kbps
Encoded date                : UTC 2017-01-29 12:49:14
Writing application         : mkvmerge v8.7.0 ('All of the above') 64bit
Writing library             : libebml v1.3.3 + libmatroska v1.4.4

Video
ID                          : 1
Format                      : AVC
Format/Info                 : Advanced Video Codec
Format profile              : Main@L4
Format settings, CABAC      : Yes
Format settings, ReFrames   : 1 frame
Format settings, GOP        : M=1, N=25
Codec ID                    : V_MPEG4/ISO/AVC
Duration                    : 49mn 16s
Bit rate mode               : Constant
Bit rate                    : 4 500 Kbps
Width                       : 1 920 pixels
Height                      : 1 080 pixels
Display aspect ratio        : 16:9
Frame rate mode             : Constant
Frame rate                  : 25.000 fps
Color space                 : YUV
Chroma subsampling          : 4:2:0
Bit depth                   : 8 bits
Scan type                   : Progressive
Bits/(Pixel*Frame)          : 0.087
Stream size                 : 1.53 GiB (99%)
Default                     : Yes
Forced                      : No

Audio
ID                          : 2
Format                      : AAC
Format/Info                 : Advanced Audio Codec
Format profile              : LC
Codec ID                    : A_AAC
Duration                    : 49mn 16s
Bit rate                    : 61.4 Kbps
Channel(s)                  : 2 channels
Channel positions           : Front: L R
Sampling rate               : 48.0 KHz
Frame rate                  : 46.875 fps (1024 spf)
Compression mode            : Lossy
Stream size                 : 21.6 MiB (1%)
Default                     : Yes
Forced                      : No





























March 06, 2017, 10:02:09 AM
Reply #39
  • Hero Member
  • ***
  • Thank You: 0
  • Reputation: 4
  • Activity:
    2.4%
  • Posts: 320
  • Topics: 1
  • Join Date: Jul 2012
  • ShareSpark Member
Pliz upload episode of 5th March in which KAPIL SHARMA was the guest in Koffee With Karan

Tags:
 

Related Topics

  Subject / Started by Replies Last post
0 Replies
567 Views
Last post December 07, 2013, 05:27:51 PM
by ♥♫ Zєυs ♥♫
1 Replies
615 Views
Last post March 11, 2014, 02:27:24 PM
by youngnawab
6 Replies
596 Views
Last post November 06, 2016, 03:42:17 PM
by honey01
2 Replies
479 Views
Last post November 07, 2016, 09:36:52 AM
by NikS97
1 Replies
586 Views
Last post December 08, 2016, 11:34:19 AM
by agrohimfuh




Back to top