+ ShareSpark.net »  :::: Bollywood Zone » Indian TV Shows
|- Koffee With Karan (2016) SEASON 05 All Sizes - All Rips - [Episode 13 Added]


Koffee With Karan (2016) SEASON 05 All Sizes - All Rips - [Episode 13 Added]

0 Members and 1 Guest are viewing this topic.

November 07, 2016, 08:10:12 AM
  • *****************
  • Head Admin
  • Legend Member
  • *****
  • Topic Author
  • Thank You: 5111
  • Reputation: 2395
  • Activity:
    100%
  • Country: in
  • Posts: 16766
  • Topics: 10166
  • Join Date: Mar 2012
  • The Time Is Now......
Koffee With Karan (2016) S05 Ep01 1080p WEB-DL x264 AAC - Hon3yHD




Format                      : Matroska
Format version              : Version 4 / Version 2
File size                   : 1.80 GiB
Duration                    : 57mn 40s
Overall bit rate            : 4 477 Kbps


Video
ID                          : 1
Format                      : AVC
Format/Info                 : Advanced Video Codec
Format profile              : [email protected]
Format settings, CABAC      : Yes
Format settings, ReFrames   : 1 frame
Format settings, GOP        : M=1, N=25
Codec ID                    : V_MPEG4/ISO/AVC
Duration                    : 57mn 40s
Bit rate mode               : Constant
Bit rate                    : 4 500 Kbps
Width                       : 1 920 pixels
Height                      : 1 080 pixels
Display aspect ratio        : 16:9
Frame rate mode             : Constant
Frame rate                  : 25.000 fps
Color space                 : YUV
Chroma subsampling          : 4:2:0
Bit depth                   : 8 bits
Scan type                   : Progressive
Bits/(Pixel*Frame)          : 0.087
Stream size                 : 1.78 GiB (99%)
Default                     : Yes
Forced                      : No

Audio
ID                          : 2
Format                      : AAC
Format/Info                 : Advanced Audio Codec
Format profile              : LC
Codec ID                    : A_AAC
Duration                    : 57mn 40s
Bit rate                    : 61.4 Kbps
Channel(s)                  : 2 channels
Channel positions           : Front: L R
Sampling rate               : 48.0 KHz
Frame rate                  : 46.875 fps (1024 spf)
Compression mode            : Lossy
Stream size                 : 25.3 MiB (1%)
Default                     : Yes
Forced                      : No
























Share this topic on FacebookShare this topic on GoogleShare this topic on MySpaceShare this topic on TwitterShare this topic on Yahoo

« Last Edit: January 29, 2017, 10:20:52 PM by -Ð@Rk.ÐèVi£- »


Thanks given by:


November 07, 2016, 08:11:36 AM
Reply #1
  • *****************
  • Head Admin
  • Legend Member
  • *****
  • Topic Author
  • Thank You: 5111
  • Reputation: 2395
  • Activity:
    100%
  • Country: in
  • Posts: 16766
  • Topics: 10166
  • Join Date: Mar 2012
  • The Time Is Now......
Koffee With Karan (2016) S05 Ep01 720p WEB-DL x264 AAC - Hon3yHD


Format                      : Matroska
Format version              : Version 4 / Version 2
File size                   : 828 MiB
Duration                    : 57mn 40s
Overall bit rate            : 2 008 Kbps


Video
ID                          : 1
Format                      : AVC
Format/Info                 : Advanced Video Codec
Format profile              : [email protected]
Format settings, CABAC      : Yes
Format settings, ReFrames   : 1 frame
Format settings, GOP        : M=1, N=25
Codec ID                    : V_MPEG4/ISO/AVC
Duration                    : 57mn 40s
Bit rate mode               : Constant
Bit rate                    : 2 000 Kbps
Width                       : 1 280 pixels
Height                      : 720 pixels
Display aspect ratio        : 16:9
Frame rate mode             : Constant
Frame rate                  : 25.000 fps
Color space                 : YUV
Chroma subsampling          : 4:2:0
Bit depth                   : 8 bits
Scan type                   : Progressive
Bits/(Pixel*Frame)          : 0.087
Stream size                 : 802 MiB (97%)
Default                     : Yes
Forced                      : No

Audio
ID                          : 2
Format                      : AAC
Format/Info                 : Advanced Audio Codec
Format profile              : LC
Codec ID                    : A_AAC
Duration                    : 57mn 40s
Bit rate                    : 61.4 Kbps
Channel(s)                  : 2 channels
Channel positions           : Front: L R
Sampling rate               : 48.0 KHz
Frame rate                  : 46.875 fps (1024 spf)
Compression mode            : Lossy
Stream size                 : 25.3 MiB (3%)
Default                     : Yes
Forced                      : No














November 07, 2016, 09:10:21 AM
Reply #2
  • *****************
  • Head Admin
  • Legend Member
  • *****
  • Topic Author
  • Thank You: 5111
  • Reputation: 2395
  • Activity:
    100%
  • Country: in
  • Posts: 16766
  • Topics: 10166
  • Join Date: Mar 2012
  • The Time Is Now......
Koffee With Karan - S05E01 - 360p - WEB-DL AAC2.0 H.264 - Exam


RELEASE NAME...: Koffee With Karan - S05E01 - 360p - WEB-DL AAC2.0 H.264 - Exam
RLS DATE ....... 06.11.2016
LENGTH ......... 56mn 58s
RESOLUTiON ..... 800x640
ViDEO BiTRATE .. 800 Kbps
ViDEO .......... x264,
AUDiO........... English AAC
FRAMERATE ...... 25 fps
SiZE ........... 350 MiB
SOURCE ......... WEB- Untouched




















November 07, 2016, 09:11:15 AM
Reply #3
  • *****************
  • Head Admin
  • Legend Member
  • *****
  • Topic Author
  • Thank You: 5111
  • Reputation: 2395
  • Activity:
    100%
  • Country: in
  • Posts: 16766
  • Topics: 10166
  • Join Date: Mar 2012
  • The Time Is Now......
Koffee With Karan - S05E01 - 720p WEB-DL AAC2.0 H.264 - Exam

RELEASE NAME...: Koffee With Karan - S05E01 - 720p WEB-DL AAC2.0 H.264 - Exam
RLS DATE ....... 06.11.2016
LENGTH ......... 56mn 58s
RESOLUTiON ..... 1280x720
ViDEO BiTRATE .. 2 000 Kbps
ViDEO .......... x264,
AUDiO........... English AAC
FRAMERATE ...... 25 fps
SiZE ........... 813 MiB
SOURCE ......... WEB- Untouched














November 07, 2016, 09:12:23 AM
Reply #4
  • *****************
  • Head Admin
  • Legend Member
  • *****
  • Topic Author
  • Thank You: 5111
  • Reputation: 2395
  • Activity:
    100%
  • Country: in
  • Posts: 16766
  • Topics: 10166
  • Join Date: Mar 2012
  • The Time Is Now......
Koffee With Karan - S05E01 - 1080p Untouched (Lovepreet1) DUS



General
Complete name                            : Koffee With Karan - S05E01 - 1080p Untouched (Lovepreet1) DUS.mp4
Format                                   : MPEG-4
Format profile                           : Base Media
Codec ID                                 : isom (isom/iso2/avc1/mp41)
File size                                : 1.82 GiB
Duration                                 : 56mn 58s
Overall bit rate mode                    : Variable
Overall bit rate                         : 4 566 Kbps
Writing application                      : Lavf56.40.101

Video
ID                                       : 1
Format                                   : AVC
Format/Info                              : Advanced Video Codec
Format profile                           : [email protected]
Format settings, CABAC                   : Yes
Format settings, ReFrames                : 1 frame
Format settings, GOP                     : M=1, N=25
Codec ID                                 : avc1
Codec ID/Info                            : Advanced Video Coding
Duration                                 : 56mn 58s
Bit rate mode                            : Constant
Bit rate                                 : 4 500 Kbps
Width                                    : 1 920 pixels
Height                                   : 1 080 pixels
Display aspect ratio                     : 16:9
Frame rate mode                          : Constant
Frame rate                               : 25.000 fps
Color space                              : YUV
Chroma subsampling                       : 4:2:0
Bit depth                                : 8 bits
Scan type                                : Progressive
Bits/(Pixel*Frame)                       : 0.087
Stream size                              : 1.79 GiB (99%)

Audio
ID                                       : 2
Format                                   : AAC
Format/Info                              : Advanced Audio Codec
Format profile                           : LC
Codec ID                                 : 40
Duration                                 : 56mn 58s
Bit rate mode                            : Variable
Bit rate                                 : 61.4 Kbps
Maximum bit rate                         : 63.8 Kbps
Channel(s)                               : 2 channels
Channel positions                        : Front: L R
Sampling rate                            : 48.0 KHz
Frame rate                               : 46.875 fps (1024 spf)
Compression mode                         : Lossy
Stream size                              : 25.0 MiB (1%)
Default                                  : Yes
Alternate group                          : 1




























November 14, 2016, 06:34:54 PM
Reply #5
  • *****************
  • Head Admin
  • Legend Member
  • *****
  • Topic Author
  • Thank You: 5111
  • Reputation: 2395
  • Activity:
    100%
  • Country: in
  • Posts: 16766
  • Topics: 10166
  • Join Date: Mar 2012
  • The Time Is Now......
Koffee With Karan - S05E02 - 1080p Untouched (Lovepreet1) DUS



General
Complete name                            : Koffee With Karan - S05E02 - 1080p Untouched (Lovepreet1) DUS.mp4
Format                                   : MPEG-4
Format profile                           : Base Media
Codec ID                                 : isom (isom/iso2/avc1/mp41)
File size                                : 1.58 GiB
Duration                                 : 49mn 24s
Overall bit rate mode                    : Variable
Overall bit rate                         : 4 566 Kbps
Writing application                      : Lavf56.40.101

Video
ID                                       : 1
Format                                   : AVC
Format/Info                              : Advanced Video Codec
Format profile                           : [email protected]
Format settings, CABAC                   : Yes
Format settings, ReFrames                : 1 frame
Format settings, GOP                     : M=1, N=25
Codec ID                                 : avc1
Codec ID/Info                            : Advanced Video Coding
Duration                                 : 49mn 24s
Bit rate mode                            : Constant
Bit rate                                 : 4 500 Kbps
Width                                    : 1 920 pixels
Height                                   : 1 080 pixels
Display aspect ratio                     : 16:9
Frame rate mode                          : Constant
Frame rate                               : 25.000 fps
Color space                              : YUV
Chroma subsampling                       : 4:2:0
Bit depth                                : 8 bits
Scan type                                : Progressive
Bits/(Pixel*Frame)                       : 0.087
Stream size                              : 1.55 GiB (99%)

Audio
ID                                       : 2
Format                                   : AAC
Format/Info                              : Advanced Audio Codec
Format profile                           : LC
Codec ID                                 : 40
Duration                                 : 49mn 24s
Bit rate mode                            : Variable
Bit rate                                 : 61.4 Kbps
Maximum bit rate                         : 63.8 Kbps
Channel(s)                               : 2 channels
Channel positions                        : Front: L R
Sampling rate                            : 48.0 KHz
Frame rate                               : 46.875 fps (1024 spf)
Compression mode                         : Lossy
Stream size                              : 21.7 MiB (1%)
Default                                  : Yes
Alternate group                          : 1























November 14, 2016, 06:37:03 PM
Reply #6
  • *****************
  • Head Admin
  • Legend Member
  • *****
  • Topic Author
  • Thank You: 5111
  • Reputation: 2395
  • Activity:
    100%
  • Country: in
  • Posts: 16766
  • Topics: 10166
  • Join Date: Mar 2012
  • The Time Is Now......
Koffee With Karan - S05E02 - 720p WEB-DL AAC2.0 H.264 - Exam


RELEASE NAME...: Koffee With Karan - S05E02 - 720p WEB-DL AAC2.0 H.264 - Exam
RLS DATE ....... 13.11.2016
LENGTH ......... 49mn 24s
RESOLUTiON ..... 1280x720
ViDEO BiTRATE .. 2 000 Kbps
ViDEO .......... x264,
AUDiO........... English AAC
FRAMERATE ...... 25 fps
SiZE ........... 657 MiB
SOURCE ......... WEB- Untouched













November 14, 2016, 06:39:00 PM
Reply #7
  • *****************
  • Head Admin
  • Legend Member
  • *****
  • Topic Author
  • Thank You: 5111
  • Reputation: 2395
  • Activity:
    100%
  • Country: in
  • Posts: 16766
  • Topics: 10166
  • Join Date: Mar 2012
  • The Time Is Now......
   Koffee With Karan - S05E02 - 360p - WEB-DL AAC2.0 H.264 - Exam


RELEASE NAME...: Koffee With Karan - S05E02 - 360p - WEB-DL AAC2.0 H.264 - Exam
RLS DATE ....... 13.11.2016
LENGTH ......... 49mn 24s
RESOLUTiON ..... 800x640
ViDEO BiTRATE .. 800 Kbps
ViDEO .......... x264,
AUDiO........... English AAC
FRAMERATE ...... 25 fps
SiZE ........... 303 MiB
SOURCE ......... WEB- Untouched



















November 14, 2016, 06:41:55 PM
Reply #8
  • *****************
  • Head Admin
  • Legend Member
  • *****
  • Topic Author
  • Thank You: 5111
  • Reputation: 2395
  • Activity:
    100%
  • Country: in
  • Posts: 16766
  • Topics: 10166
  • Join Date: Mar 2012
  • The Time Is Now......
Koffee With Karan
(2016)
360p-404p-720p-900p-Se5 - Epi2 - x264 - Team IcTv






360p




404p




720p




900p



November 14, 2016, 06:43:20 PM
Reply #9
  • *****************
  • Head Admin
  • Legend Member
  • *****
  • Topic Author
  • Thank You: 5111
  • Reputation: 2395
  • Activity:
    100%
  • Country: in
  • Posts: 16766
  • Topics: 10166
  • Join Date: Mar 2012
  • The Time Is Now......
Koffee With Karan (2016) S05 Ep02 720p WEB-DL x264 AAC - Hon3yHD

Format                      : Matroska
Format version              : Version 4 / Version 2
File size                   : 657 MiB
Duration                    : 49mn 24s
Overall bit rate            : 1 860 Kbps


Video
ID                          : 1
Format                      : AVC
Format/Info                 : Advanced Video Codec
Format profile              : [email protected]
Format settings, CABAC      : Yes
Format settings, ReFrames   : 1 frame
Format settings, GOP        : M=1, N=25
Codec ID                    : V_MPEG4/ISO/AVC
Duration                    : 49mn 24s
Bit rate mode               : Constant
Bit rate                    : 1 796 Kbps
Nominal bit rate            : 2 000 Kbps
Width                       : 1 280 pixels
Height                      : 720 pixels
Display aspect ratio        : 16:9
Frame rate mode             : Constant
Frame rate                  : 25.000 fps
Color space                 : YUV
Chroma subsampling          : 4:2:0
Bit depth                   : 8 bits
Scan type                   : Progressive
Bits/(Pixel*Frame)          : 0.078
Stream size                 : 635 MiB (97%)
Default                     : Yes
Forced                      : No

Audio
ID                          : 2
Format                      : AAC
Format/Info                 : Advanced Audio Codec
Format profile              : LC
Codec ID                    : A_AAC
Duration                    : 49mn 24s
Bit rate                    : 61.4 Kbps
Channel(s)                  : 2 channels
Channel positions           : Front: L R
Sampling rate               : 48.0 KHz
Frame rate                  : 46.875 fps (1024 spf)
Compression mode            : Lossy
Stream size                 : 21.7 MiB (3%)
Default                     : Yes
Forced                      : No










November 14, 2016, 06:44:24 PM
Reply #10
  • *****************
  • Head Admin
  • Legend Member
  • *****
  • Topic Author
  • Thank You: 5111
  • Reputation: 2395
  • Activity:
    100%
  • Country: in
  • Posts: 16766
  • Topics: 10166
  • Join Date: Mar 2012
  • The Time Is Now......
Koffee With Karan (2016) S05 Ep02 1080p WEB-DL x264 AAC - Hon3yHD


Format                      : Matroska
Format version              : Version 4 / Version 2
File size                   : 1.55 GiB
Duration                    : 49mn 24s
Overall bit rate            : 4 492 Kbps


Video
ID                          : 1
Format                      : AVC
Format/Info                 : Advanced Video Codec
Format profile              : [email protected]
Format settings, CABAC      : Yes
Format settings, ReFrames   : 1 frame
Format settings, GOP        : M=1, N=25
Codec ID                    : V_MPEG4/ISO/AVC
Duration                    : 49mn 24s
Bit rate mode               : Constant
Bit rate                    : 4 500 Kbps
Width                       : 1 920 pixels
Height                      : 1 080 pixels
Display aspect ratio        : 16:9
Frame rate mode             : Constant
Frame rate                  : 25.000 fps
Color space                 : YUV
Chroma subsampling          : 4:2:0
Bit depth                   : 8 bits
Scan type                   : Progressive
Bits/(Pixel*Frame)          : 0.087
Stream size                 : 1.53 GiB (99%)
Default                     : Yes
Forced                      : No

Audio
ID                          : 2
Format                      : AAC
Format/Info                 : Advanced Audio Codec
Format profile              : LC
Codec ID                    : A_AAC
Duration                    : 49mn 24s
Bit rate                    : 61.4 Kbps
Channel(s)                  : 2 channels
Channel positions           : Front: L R
Sampling rate               : 48.0 KHz
Frame rate                  : 46.875 fps (1024 spf)
Compression mode            : Lossy
Stream size                 : 21.7 MiB (1%)
Default                     : Yes
Forced                      : No
















November 20, 2016, 08:39:59 PM
Reply #11
  • *****************
  • Head Admin
  • Legend Member
  • *****
  • Topic Author
  • Thank You: 5111
  • Reputation: 2395
  • Activity:
    100%
  • Country: in
  • Posts: 16766
  • Topics: 10166
  • Join Date: Mar 2012
  • The Time Is Now......
Koffee with Karan S05E03 1080p Untouched WEBHD WeTv ExclusivE












November 20, 2016, 08:41:02 PM
Reply #12
  • *****************
  • Head Admin
  • Legend Member
  • *****
  • Topic Author
  • Thank You: 5111
  • Reputation: 2395
  • Activity:
    100%
  • Country: in
  • Posts: 16766
  • Topics: 10166
  • Join Date: Mar 2012
  • The Time Is Now......
Koffee with Karan S05E03 720p WEBHD D3Si MaNiACs


















November 20, 2016, 08:42:33 PM
Reply #13
  • *****************
  • Head Admin
  • Legend Member
  • *****
  • Topic Author
  • Thank You: 5111
  • Reputation: 2395
  • Activity:
    100%
  • Country: in
  • Posts: 16766
  • Topics: 10166
  • Join Date: Mar 2012
  • The Time Is Now......
Koffee With Karan (2016) S05 Ep03 1080p WEB-DL x264 AAC - Hon3yHD

Format                      : Matroska
Format version              : Version 4 / Version 2
File size                   : 1.33 GiB
Duration                    : 42mn 24s
Overall bit rate            : 4 498 Kbps


Video
ID                          : 1
Format                      : AVC
Format/Info                 : Advanced Video Codec
Format profile              : [email protected]
Format settings, CABAC      : Yes
Format settings, ReFrames   : 1 frame
Format settings, GOP        : M=1, N=25
Codec ID                    : V_MPEG4/ISO/AVC
Duration                    : 42mn 24s
Bit rate mode               : Constant
Bit rate                    : 4 500 Kbps
Width                       : 1 920 pixels
Height                      : 1 080 pixels
Display aspect ratio        : 16:9
Frame rate mode             : Constant
Frame rate                  : 25.000 fps
Color space                 : YUV
Chroma subsampling          : 4:2:0
Bit depth                   : 8 bits
Scan type                   : Progressive
Bits/(Pixel*Frame)          : 0.087
Stream size                 : 1.31 GiB (99%)
Default                     : Yes
Forced                      : No

Audio
ID                          : 2
Format                      : AAC
Format/Info                 : Advanced Audio Codec
Format profile              : LC
Codec ID                    : A_AAC
Duration                    : 42mn 24s
Bit rate                    : 61.4 Kbps
Channel(s)                  : 2 channels
Channel positions           : Front: L R
Sampling rate               : 48.0 KHz
Frame rate                  : 46.875 fps (1024 spf)
Compression mode            : Lossy
Stream size                 : 18.6 MiB (1%)
Default                     : Yes
Forced                      : No















November 20, 2016, 08:43:31 PM
Reply #14
  • *****************
  • Head Admin
  • Legend Member
  • *****
  • Topic Author
  • Thank You: 5111
  • Reputation: 2395
  • Activity:
    100%
  • Country: in
  • Posts: 16766
  • Topics: 10166
  • Join Date: Mar 2012
  • The Time Is Now......
Koffee With Karan (2016) S05 Ep03 720p WEB-DL x264 AAC - Hon3yHD


Format                      : Matroska
Format version              : Version 4 / Version 2
File size                   : 597 MiB
Duration                    : 42 min
Overall bit rate            : 1 969 kb/s


Video
ID                          : 1
Format                      : AVC
Format/Info                 : Advanced Video Codec
Format profile              : [email protected]
Format settings, CABAC      : Yes
Format settings, ReFrames   : 1 frame
Format settings, GOP        : M=1, N=25
Codec ID                    : V_MPEG4/ISO/AVC
Duration                    : 42 min
Bit rate mode               : Constant
Bit rate                    : 2 000 kb/s
Width                       : 1 280 pixels
Height                      : 720 pixels
Display aspect ratio        : 16:9
Frame rate mode             : Constant
Frame rate                  : 25.000 FPS
Color space                 : YUV
Chroma subsampling          : 4:2:0
Bit depth                   : 8 bits
Scan type                   : Progressive
Bits/(Pixel*Frame)          : 0.087
Stream size                 : 578 MiB (97%)
Default                     : Yes
Forced                      : No

Audio
ID                          : 2
Format                      : AAC
Format/Info                 : Advanced Audio Codec
Format profile              : LC
Codec ID                    : A_AAC
Duration                    : 42 min
Bit rate                    : 61.4 kb/s
Channel(s)                  : 2 channels
Channel positions           : Front: L R
Sampling rate               : 48.0 kHz
Frame rate                  : 46.875 FPS (1024 spf)
Compression mode            : Lossy
Stream size                 : 18.6 MiB (3%)
Default                     : Yes
Forced                      : No












November 21, 2016, 01:14:10 PM
Reply #15
  • *****************
  • Head Admin
  • Legend Member
  • *****
  • Topic Author
  • Thank You: 5111
  • Reputation: 2395
  • Activity:
    100%
  • Country: in
  • Posts: 16766
  • Topics: 10166
  • Join Date: Mar 2012
  • The Time Is Now......
Koffee With Karan
(2016)
360p-404p-900p-1080p - Se5 - Epi3 - x264 - Team IcTv








360p





404p





900p





1080p


« Last Edit: November 21, 2016, 01:15:10 PM by -Ð@Rk.ÐèVi£- »

November 29, 2016, 05:26:55 PM
Reply #16
  • *****************
  • Head Admin
  • Legend Member
  • *****
  • Topic Author
  • Thank You: 5111
  • Reputation: 2395
  • Activity:
    100%
  • Country: in
  • Posts: 16766
  • Topics: 10166
  • Join Date: Mar 2012
  • The Time Is Now......
Koffee With Karan
(2016)
404p-720p-900p-1080p - Se5 - Epi4 - x264 - Team IcTv







404p


720p


900p


1080p
« Last Edit: November 29, 2016, 06:07:12 PM by -Ð@Rk.ÐèVi£- »

December 04, 2016, 08:57:44 PM
Reply #17
  • *****************
  • Head Admin
  • Legend Member
  • *****
  • Topic Author
  • Thank You: 5111
  • Reputation: 2395
  • Activity:
    100%
  • Country: in
  • Posts: 16766
  • Topics: 10166
  • Join Date: Mar 2012
  • The Time Is Now......
Koffee With Karan (2016) S05 Ep05 - 720p - 1080p WEB-DL x264 AAC - Hon3yHD






720p



1080p


December 05, 2016, 09:54:58 AM
Reply #18
  • *****************
  • Head Admin
  • Legend Member
  • *****
  • Topic Author
  • Thank You: 5111
  • Reputation: 2395
  • Activity:
    100%
  • Country: in
  • Posts: 16766
  • Topics: 10166
  • Join Date: Mar 2012
  • The Time Is Now......
Koffee With Karan
(2016)
404p-720p-900p-1080p - Se5 - Epi 4 - x264 - Team IcTv







404p



720p



900p



1080p

December 12, 2016, 01:34:10 PM
Reply #19
  • Begginer
  • **
  • Thank You: 0
  • Reputation: 2
  • Activity:
    0%
  • Country: in
  • Posts: 61
  • Topics: 0
  • Join Date: May 2016
  • ShareSpark Member

Tags:
 

Related Topics

  Subject / Started by Replies Last post
0 Replies
614 Views
Last post December 07, 2013, 05:27:51 PM
by ♥♫ Zєυs ♥♫
1 Replies
676 Views
Last post March 11, 2014, 02:27:24 PM
by youngnawab
6 Replies
664 Views
Last post November 06, 2016, 03:42:17 PM
by honey01
2 Replies
509 Views
Last post November 07, 2016, 09:36:52 AM
by NikS97
1 Replies
642 Views
Last post December 08, 2016, 11:34:19 AM
by agrohimfuh




Back to top