+ ShareSpark.net »  :::: Bollywood Zone » Regional Movies » Punjabi Movies
|- Aatishbaazi Ishq (2016) Punjabi DVDRip x264 - Lesnar


TV and Appliances

Aatishbaazi Ishq (2016) Punjabi DVDRip x264 - Lesnar

0 Members and 1 Guest are viewing this topic.

October 22, 2016, 08:28:43 PM
  • ♫♫♣ B૦ՐՈ T૦ H૯Նƿ ♣♫♫
  • Global Moderator
  • Legend Member
  • *****
  • Topic Author
  • Thank You: 1104
  • Reputation: 725
  • Activity:
    0%
  • Country: dk
  • Posts: 2712
  • Topics: 1192
  • Join Date: Jan 2013
  • ♠§§ Dσп'т Tαʟκ Jυƨт Acт §§ Dσп'т Sαч Jυƨт Sнσш §§♠
:title:
Aatishbaazi Ishq (2016) Punjabi DVDRip x264 - Lesnar




:info:
General
Format : Matroska
Format version : Version 4 / Version 2
File size : 453 MiB
Duration : 2 h 25 min
Overall bit rate : 435 kb/s
Encoded date : UTC 2016-10-22 07:18:00
Writing application : mkvmerge v9.4.2 ('So High') 32bit
Writing library : libebml v1.3.4 + libmatroska v1.4.5

Video
ID : 1
Format : AVC
Format/Info : Advanced Video Codec
Format profile : [email protected]
Format settings, CABAC : Yes
Format settings, ReFrames : 4 frames
Codec ID : V_MPEG4/ISO/AVC
Duration : 2 h 25 min
Bit rate : 400 kb/s
Width : 720 pixels
Height : 302 pixels
Display aspect ratio : 2.40:1
Frame rate mode : Variable
Frame rate : 23.976 (24000/1001) FPS
Color space : YUV
Chroma subsampling : 4:2:0
Bit depth : 8 bits
Scan type : Progressive
Bits/(Pixel*Frame) : 0.077
Stream size : 417 MiB (92%)
Writing library : x264 core 142 r2479 dd79a61
Forced : No
Color range : Limited
Color primaries : BT.709
Transfer characteristics : BT.709
Matrix coefficients : BT.709

Audio
ID : 2
Format : AAC
Format/Info : Advanced Audio Codec
Format profile : LC
Codec ID : A_AAC
Duration : 2 h 25 min
Bit rate : 32.2 kb/s
Channel(s) : 1 channel
Channel positions : Front: C
Sampling rate : 44.1 kHz
Frame rate : 43.066 FPS (1024 spf)
Compression mode : Lossy
Delay relative to video : -83 ms
Stream size : 33.6 MiB (7%)
Default : Yes
Forced : No


:ss:





:download:






Share this topic on FacebookShare this topic on GoogleShare this topic on MySpaceShare this topic on TwitterShare this topic on Yahoo




If U like any post, then say thanks 2 d uploader by posting in his topic, adding thanks & reputes 2 him.:)

Thanks given by:


November 13, 2016, 07:55:09 PM
Reply #1
  • Senior Member
  • ***
  • Thank You: 0
  • Reputation: 0
  • Activity:
    0.8%
  • Country: om
  • Posts: 256
  • Topics: 5
  • Join Date: Jul 2013
  • ShareSpark Member
this movie is not working well every 7 mins have to play the movie again and again plz fix the problem

Tags:
 

Related Topics

  Subject / Started by Replies Last post
3 Replies
1329 Views
Last post March 11, 2014, 02:23:28 PM
by youngnawab
1 Replies
1078 Views
Last post February 27, 2014, 11:10:17 AM
by azhar0300♥♫
0 Replies
620 Views
Last post June 28, 2014, 06:35:37 PM
by Masoom Duaa
0 Replies
778 Views
Last post June 28, 2014, 07:48:29 PM
by Masoom Duaa
0 Replies
966 Views
Last post December 19, 2016, 02:40:50 PM
by PSYCHO




Back to top