+ ShareSpark.net »  :::: Dubbed Zone (Dubbed English in Hindi) » English Movies Dubbed in Hindi » 3D Movies
|- The Croods (2013) 3D Half OU BluRay 1080p x264 Dual Audio [Hindi - English] DD5.1...Hon3y


The Croods (2013) 3D Half OU BluRay 1080p x264 Dual Audio [Hindi - English] DD5.1...Hon3y

0 Members and 1 Guest are viewing this topic.

September 30, 2016, 05:31:14 AM
  • V.I.P.
  • Elite Member
  • ***
  • Topic Author
  • Thank You: 152
  • Reputation: 37
  • Activity:
    3%
  • Country: sa
  • Posts: 443
  • Topics: 419
  • Join Date: Jun 2014
  • ShareSpark Member







Quote
General
Format                      : Matroska
Format version              : Version 4 / Version 2
File size                   : 4.38 GiB
Duration                    : 1 h 38 min
Overall bit rate            : 6 356 kb/s
Movie name                  : [email protected]

Video
Format                      : AVC
Format/Info                 : Advanced Video Codec
Format profile              : [email protected]
Format settings, CABAC      : Yes
Format settings, ReFrames   : 4 frames
Codec ID                    : V_MPEG4/ISO/AVC
Duration                    : 1 h 38 min
Bit rate                    : 5 451 kb/s
Width                       : 1 920 pixels
Height                      : 1 080 pixels
Display aspect ratio        : 16:9
Frame rate mode             : Constant
Frame rate                  : 23.976 (24000/1001) FPS
Color space                 : YUV
Chroma subsampling          : 4:2:0
Bit depth                   : 8 bits
Scan type                   : Progressive
Bits/(Pixel*Frame)          : 0.110
Stream size                 : 3.75 GiB (86%)
Title                       : [email protected]

Audio 1
Format                      : AC-3
Format/Info                 : Audio Coding 3
Mode extension              : CM (complete main)
Format settings, Endianness : Big
Codec ID                    : A_AC3
Duration                    : 1 h 38 min
Bit rate mode               : Constant
Bit rate                    : 448 kb/s
Channel(s)                  : 6 channels
Channel positions           : Front: L C R, Side: L R, LFE
Sampling rate               : 48.0 kHz
Frame rate                  : 31.250 FPS (1536 spf)
Compression mode            : Lossy
Stream size                 : 316 MiB (7%)
Title                       : [email protected]
Language                    : Hindi
Default                     : Yes
Forced                      : Yes

Audio 2
Format                      : AC-3
Format/Info                 : Audio Coding 3
Mode extension              : CM (complete main)
Format settings, Endianness : Big
Codec ID                    : A_AC3
Duration                    : 1 h 38 min
Bit rate mode               : Constant
Bit rate                    : 448 kb/s
Channel(s)                  : 6 channels
Channel positions           : Front: L C R, Side: L R, LFE
Sampling rate               : 48.0 kHz
Frame rate                  : 31.250 FPS (1536 spf)
Compression mode            : Lossy
Stream size                 : 316 MiB (7%)
Title                       : [email protected]
Language                    : English
Default                     : No

__B!RoH!_MoN__

























Share this topic on FacebookShare this topic on GoogleShare this topic on MySpaceShare this topic on TwitterShare this topic on Yahoo

« Last Edit: September 30, 2016, 05:32:03 AM by __B!RoH!_MoN__ »


Thanks given by:


Tags:
 

Related Topics





Back to top