+ ShareSpark.net »  :::: Dubbed Zone (Dubbed English in Hindi) » English Movies Dubbed in Hindi » 3D Movies
|- Captain America Civil War 2016 1080p [IMAX Edition] 3D SBS BluRay x264 Dual-Audio DD5.1...Hon3y


Captain America Civil War 2016 1080p [IMAX Edition] 3D SBS BluRay x264 Dual-Audio DD5.1...Hon3y

0 Members and 1 Guest are viewing this topic.

September 25, 2016, 07:35:54 AM
  • *****************
  • Head Admin
  • Legend Member
  • *****
  • Topic Author
  • Thank You: 4418
  • Reputation: 2297
  • Activity:
    100%
  • Country: in
  • Posts: 15673
  • Topics: 9591
  • Join Date: Mar 2012
  • The Time Is Now......
Torrable - One stop for all your download & upload needs. It's smart, easy and free.


Captain America Civil War 2016 1080p [IMAX Edition] 3D SBS BluRay x264 Dual-Audio[English DTS-HDMA 7.1][Hindi(Org) DD5.1]...Hon3y


Format                      : Matroska
Format version              : Version 4 / Version 2
File size                   : 14.8 GiB
Duration                    : 2 h 27 min
Overall bit rate            : 14.4 Mb/s
Movie name                  : Hon3yHD

Video
ID                          : 1
Format                      : AVC
Format/Info                 : Advanced Video Codec
Format profile              : [email protected]
Format settings, CABAC      : Yes
Format settings, ReFrames   : 4 frames
Codec ID                    : V_MPEG4/ISO/AVC
Duration                    : 2 h 27 min
Bit rate                    : 9 000 kb/s
Width                       : 1 920 pixels
Height                      : 1 080 pixels
Display aspect ratio        : 16:9
Frame rate mode             : Constant
Frame rate                  : 23.976 (24000/1001) FPS
Stream size                 : 9.28 GiB (63%)
Title                       : R3al_Warrior...Hon3yHD

Audio Credits : PYZ Thanks bro

Audio #1
ID                          : 2
Format                      : DTS
Format/Info                 : Digital Theater Systems
Format profile              : MA / Core
Mode                        : 16
Format settings, Endianness : Big
Codec ID                    : A_DTS
Duration                    : 2 h 27 min
Bit rate mode               : Variable / Constant
Bit rate                    : 4 699 kb/s / 1 509 kb/s
Channel(s)                  : 8 channels / 6 channels
Channel positions           : Front: L C R, Side: L R, Back: L R, LFE / Front: L C R, Side: L R, LFE
Sampling rate               : 48.0 kHz
Frame rate                  : 93.750 FPS (512 spf)
Bit depth                   : 24 bits
Compression mode            : Lossless / Lossy
Stream size                 : 4.85 GiB (32%)
Language                    : English
Default                     : No
Forced                      : No

Audio #2
ID                          : 3
Format                      : AC-3
Format/Info                 : Audio Coding 3
Mode extension              : CM (complete main)
Format settings, Endianness : Big
Codec ID                    : A_AC3
Duration                    : 2 h 27 min
Bit rate mode               : Constant
Bit rate                    : 640 kb/s
Channel(s)                  : 6 channels
Channel positions           : Front: L C R, Side: L R, LFE
Sampling rate               : 48.0 kHz
Frame rate                  : 31.250 FPS (1536 spf)
Compression mode            : Lossy
Stream size                 : 676 MiB (4%)
Title                       : Hindi---R3al_Warrior...Hon3yHD
Language                    : Hindi
Default                     : Yes
Forced                      : Yes

Text #1
ID                          : 4
Format                      : PGS
Muxing mode                 : zlib
Codec ID                    : S_HDMV/PGS
Codec ID/Info               : Picture based subtitle format used on BDs/HD-DVDs
Duration                    : 2 h 26 min
Bit rate                    : 11.4 kb/s
Count of elements           : 4210
Stream size                 : 12.0 MiB (0%)
Title                       : English---R3al_Warrior...Hon3yHD
Language                    : English
Default                     : No
Forced                      : No

Text #2
ID                          : 5
Format                      : PGS
Muxing mode                 : zlib
Codec ID                    : S_HDMV/PGS
Codec ID/Info               : Picture based subtitle format used on BDs/HD-DVDs
Duration                    : 1 h 44 min
Bit rate                    : 143 b/s
Count of elements           : 118
Stream size                 : 110 KiB (0%)
Title                       : English---R3al_Warrior...Hon3yHD
Language                    : English
Default                     : No
Forced                      : No

Menu
00:00:00.000                : en:00:00:00.000
00:09:01.957                : en:00:09:01.957
00:13:04.991                : en:00:13:04.991
00:21:03.345                : en:00:21:03.345
00:27:53.380                : en:00:27:53.380
00:31:57.289                : en:00:31:57.289
00:35:08.396                : en:00:35:08.396
00:42:58.449                : en:00:42:58.449
00:52:04.621                : en:00:52:04.621
01:05:39.101                : en:01:05:39.101
01:16:41.637                : en:01:16:41.637
01:22:28.777                : en:01:22:28.777
01:29:29.488                : en:01:29:29.488
01:34:09.769                : en:01:34:09.769
01:45:38.582                : en:01:45:38.582
01:55:54.322                : en:01:55:54.322
02:02:35.055                : en:02:02:35.055
02:12:14.176                : en:02:12:14.176
02:18:29.384                : en:02:18:29.384






























Share this topic on FacebookShare this topic on GoogleShare this topic on MySpaceShare this topic on TwitterShare this topic on Yahoo




September 25, 2016, 11:47:34 AM
Reply #1
  • Semi Newbie
  • **
  • Thank You: 0
  • Reputation: 0
  • Activity:
    0.6%
  • Posts: 14
  • Topics: 0
  • Join Date: Aug 2013
  • ShareSpark Member

Tags:
 

Related Topics

  Subject / Started by Replies Last post
0 Replies
283 Views
Last post September 24, 2016, 10:20:16 AM
by -Ð@Rk.ÐèVi£-
1 Replies
388 Views
Last post September 24, 2016, 11:27:07 AM
by Shadnan Khan
0 Replies
503 Views
Last post September 24, 2016, 11:58:23 AM
by -Ð@Rk.ÐèVi£-
0 Replies
463 Views
Last post September 24, 2016, 12:42:23 PM
by -Ð@Rk.ÐèVi£-
1 Replies
582 Views
Last post September 24, 2016, 04:49:33 PM
by Shadnan Khan




Back to top