+ ShareSpark.net »  :::: Bollywood Zone » Indian TV Shows
|- Koffee With Karan (2016) SEASON 05 All Sizes - All Rips - [Episode 9 Added]


Koffee With Karan (2016) SEASON 05 All Sizes - All Rips - [Episode 9 Added]

0 Members and 1 Guest are viewing this topic.

December 12, 2016, 06:04:08 PM
Reply #20
  • Devoted Member
  • **
  • Thank You: 93
  • Reputation: 13
  • Activity:
    30.2%
  • Country: us
  • Posts: 125
  • Topics: 125
  • Join Date: Nov 2016
  • ShareSpark Member
Torrable - One stop for all your download & upload needs. It's smart, easy and free.
:title:

Koffee.With.Karan.(2016).S05.Ep06.720p.WEB-DL.x264.AAC








:ss:






:download:


Watch Online






Single link








December 20, 2016, 09:56:40 AM
Reply #21
  • *****************
  • Head Admin
  • Legend Member
  • *****
  • Topic Author
  • Thank You: 4354
  • Reputation: 2279
  • Activity:
    100%
  • Country: in
  • Posts: 15406
  • Topics: 9461
  • Join Date: Mar 2012
  • The Time Is Now......
Koffee With Karan
(2016)
404p-720p-900p-1080p - Se5 - Epi6 - x264 - Team IcTv







404p


720p


900p


1080p

December 20, 2016, 09:58:45 AM
Reply #22
  • *****************
  • Head Admin
  • Legend Member
  • *****
  • Topic Author
  • Thank You: 4354
  • Reputation: 2279
  • Activity:
    100%
  • Country: in
  • Posts: 15406
  • Topics: 9461
  • Join Date: Mar 2012
  • The Time Is Now......
Koffee With Karan
(2016)
404p - 720p - 900p - 1080p - Se5 - Epi7 - x264 - Team IcTv









404p



720p



1080p
« Last Edit: December 20, 2016, 10:00:45 AM by -Ð@Rk.ÐèVi£- »

December 20, 2016, 04:50:30 PM
Reply #23
  • Elite Member
  • ***
  • Thank You: 459
  • Reputation: 156
  • Activity:
    44.6%
  • Country: bd
  • Posts: 411
  • Topics: 105
  • Join Date: Feb 2013
  • ShareSpark Member

December 26, 2016, 09:34:15 AM
Reply #24
  • *****************
  • Head Admin
  • Legend Member
  • *****
  • Topic Author
  • Thank You: 4354
  • Reputation: 2279
  • Activity:
    100%
  • Country: in
  • Posts: 15406
  • Topics: 9461
  • Join Date: Mar 2012
  • The Time Is Now......
Koffee With Karan
(2016)
404p-720p-900p-1080p - Se5 - Epi8 - x264 - Team IcTv








404p


720p


900p


1080p
« Last Edit: December 26, 2016, 04:56:49 PM by -Ð@Rk.ÐèVi£- »

December 26, 2016, 04:23:38 PM
Reply #25
  • Newbie
  • **
  • Thank You: 0
  • Reputation: 0
  • Activity:
    0.8%
  • Country: in
  • Posts: 4
  • Topics: 0
  • Join Date: Dec 2016
  • ShareSpark Member
Bro Episode 8 has Bigg Boss link in 720p link
please check 

December 26, 2016, 04:57:16 PM
Reply #26
  • *****************
  • Head Admin
  • Legend Member
  • *****
  • Topic Author
  • Thank You: 4354
  • Reputation: 2279
  • Activity:
    100%
  • Country: in
  • Posts: 15406
  • Topics: 9461
  • Join Date: Mar 2012
  • The Time Is Now......

December 26, 2016, 06:29:19 PM
Reply #27
  • Elite Member
  • ***
  • Thank You: 459
  • Reputation: 156
  • Activity:
    44.6%
  • Country: bd
  • Posts: 411
  • Topics: 105
  • Join Date: Feb 2013
  • ShareSpark Member

January 02, 2017, 10:18:01 AM
Reply #28
  • Newbie
  • **
  • Thank You: 0
  • Reputation: 0
  • Activity:
    0.8%
  • Country: in
  • Posts: 4
  • Topics: 0
  • Join Date: Dec 2016
  • ShareSpark Member

January 02, 2017, 12:06:35 PM
Reply #29
  • Global Moderator
  • Legend Member
  • *****
  • Thank You: 1422
  • Reputation: 311
  • Activity:
    27.2%
  • Country: in
  • Posts: 2921
  • Topics: 1870
  • Join Date: Dec 2013
  • ShareSpark Member
   
Koffee With.Karan (2016) S05 Ep09 720p WEB-DL x264 AAC - Hon3yHD
   



Poster















General
Unique ID                                : 218896539061657132271417615612328828561 (0xA4ADF09F43474BE3906A2C9707E05E91)
Format                                   : Matroska
Format version                           : Version 4 / Version 2
File size                                : 669 MiB
Duration                                 : 46 min 7 s
Overall bit rate                         : 2 027 kb/s
Encoded date                             : UTC 2017-01-01 20:56:33
Writing application                      : mkvmerge v9.4.2 ('So High') 64bit
Writing library                          : libebml v1.3.4 + libmatroska v1.4.5

Video
ID                                       : 1
Format                                   : AVC
Format/Info                              : Advanced Video Codec
Format profile                           : [email protected]
Format settings, CABAC                   : Yes
Format settings, ReFrames                : 1 frame
Format settings, GOP                     : M=1, N=25
Codec ID                                 : V_MPEG4/ISO/AVC
Duration                                 : 46 min 7 s
Bit rate mode                            : Constant
Bit rate                                 : 2 000 kb/s
Width                                    : 1 280 pixels
Height                                   : 720 pixels
Display aspect ratio                     : 16:9
Frame rate mode                          : Constant
Frame rate                               : 25.000 FPS
Color space                              : YUV
Chroma subsampling                       : 4:2:0
Bit depth                                : 8 bits
Scan type                                : Progressive
Bits/(Pixel*Frame)                       : 0.087
Stream size                              : 648 MiB (97%)
Default                                  : Yes
Forced                                   : No

Audio
ID                                       : 2
Format                                   : AAC
Format/Info                              : Advanced Audio Codec
Format profile                           : LC
Codec ID                                 : A_AAC
Duration                                 : 46 min 7 s
Bit rate                                 : 61.4 kb/s
Channel(s)                               : 2 channels
Channel positions                        : Front: L R
Sampling rate                            : 48.0 kHz
Frame rate                               : 46.875 FPS (1024 spf)
Compression mode                         : Lossy
Stream size                              : 20.3 MiB (3%)
Default                                  : Yes
Forced                                   : No



All Credit Goes To Orignal Uploader







      










      
      
« Last Edit: January 02, 2017, 12:07:50 PM by тнє ωαll 81317 »


Tags:
 

Related Topics

  Subject / Started by Replies Last post
0 Replies
416 Views
Last post December 07, 2013, 05:27:51 PM
by ♥♫ Zєυs ♥♫
1 Replies
405 Views
Last post March 11, 2014, 02:27:24 PM
by youngnawab
6 Replies
371 Views
Last post November 06, 2016, 03:42:17 PM
by honey01
2 Replies
327 Views
Last post November 07, 2016, 09:36:52 AM
by NikS97
1 Replies
315 Views
Last post December 08, 2016, 11:34:19 AM
by agrohimfuh




Back to top