+ ShareSpark.net »  :::: Bollywood Zone » Pakistani / Urdu Movies
|- Dukhtar (2015) 720p Webrip x264 AC3 5.1 Urdu MSubs - DDR


Dukhtar (2015) 720p Webrip x264 AC3 5.1 Urdu MSubs - DDR

0 Members and 1 Guest are viewing this topic.

September 13, 2016, 10:29:02 AM
  • *****************
  • Head Admin
  • Legend Member
  • *****
  • Topic Author
  • Thank You: 4354
  • Reputation: 2279
  • Activity:
    100%
  • Country: in
  • Posts: 15406
  • Topics: 9461
  • Join Date: Mar 2012
  • The Time Is Now......
Torrable - One stop for all your download & upload needs. It's smart, easy and free.




720p WebRip x264

UrduAC3 5.1 Audio



English & French Subtitles



Synopsis:



In the mountains of Pakistan, a mother and her ten-year-old daughter flee their home on the eve of the girl's marriage to a tribal leader. A deadly hunt for them begins.

AWARDS
Cinema for Peace Awards 2015
Nominated
Cinema for Peace Award for Justice Afia Nathaniel / Muhammad Khalid Ali

Columbia University Film Festival 2015
Won
Ezra Litwak Award for Distinction in Screenwriting Afia Nathaniel

Créteil International Women's Film Festival 2015
Won
Audience Award Best Feature Film (Meilleur Long Metràge Fiction)
Afia Nathaniel

Gotham Awards 2015
Nominated
Spotlight on Women Filmmakers 'Live the Dream' Grant Afia Nathaniel
Project: "Dukhthar"

Lux Style Awards 2015
Won
Lux Style Award Best Actress
Saleha Aref
Nominated
Lux Style Award Best Actress
Samiya Mumtaz
Best Original Soundtrack
Sahir Ali Bagga

Minneapolis St. Paul International Film Festival 2015
Nominated
Emerging Filmmaker Best World Feature
Afia Nathaniel

Sonoma International Film Festival 2015
Won
Jury Award Best World Feature
Afia Nathaniel
Muhammad Khalid Ali





Specs:
Source: Netflix HD Rip @ DDR

Format : Matroska
File size : 1.71 GiB
Duration : 1 h 32 min
Overall bit rate : 2 641 kb/s

Video
Format : AVC
Format/Info : Advanced Video Codec
Format profile : [email protected]
Format settings, CABAC : Yes
Format settings, ReFrames : 12 frames
Codec ID : V_MPEG4/ISO/AVC
Duration : 1 h 32 min
Bit rate : 2 000 kb/s
Width : 1 280 pixels
Height : 544 pixels
Display aspect ratio : 2.35:1
Frame rate mode : Constant
Frame rate : 24.000 FPS
Color space : YUV
Chroma subsampling : 4:2:0
Bit depth : 8 bits
Scan type : Progressive
Bits/(Pixel*Frame) : 0.120
Stream size : 1.30 GiB (76%)
Default : Yes
Forced : No
Color range : Limited
Color primaries : BT.709
Transfer characteristics : BT.709
Matrix coefficients : BT.709

Audio
Format : AC-3
Format/Info : Audio Coding 3
Mode extension : CM (complete main)
Format settings, Endianness : Big
Codec ID : A_AC3
Duration : 1 h 32 min
Bit rate mode : Constant
Bit rate : 640 kb/s
Channel(s) : 6 channels
Channel positions : Front: L C R, Side: L R, LFE
Sampling rate : 48.0 kHz
Frame rate : 31.250 FPS (1536 spf)
Compression mode : Lossy
Delay relative to video : 24 ms
Stream size : 425 MiB (24%)
Language : Urdu
Default : Yes
Forced : No

















Share this topic on FacebookShare this topic on GoogleShare this topic on MySpaceShare this topic on TwitterShare this topic on Yahoo

« Last Edit: September 14, 2016, 04:48:35 PM by -Ð@Rk.ÐèVi£- »



Tags:
 

Related Topics





Back to top