+ ShareSpark.net »  :::: Dubbed Zone (Dubbed English in Hindi) » English Movies Dubbed in Hindi » High Resolution Movies
|- High School Musical 3 (2008) 720p BluRay x264 Dual Audio [English 5.1 + Hindi 2.0] - TBI


Mastercard 10% Off

High School Musical 3 (2008) 720p BluRay x264 Dual Audio [English 5.1 + Hindi 2.0] - TBI

0 Members and 1 Guest are viewing this topic.

October 20, 2014, 02:50:35 AM
  • •?((¯°·._.• [email protected]ţɨɲ[email protected]ţɨɲ •._.·°¯))؟•
  • Elite Mod (Inactive)
  • Legend Member
  • ****
  • Topic Author
  • Thank You: 1601
  • Reputation: 783
  • Activity:
    0%
  • Posts: 2758
  • Topics: 1761
  • Join Date: Feb 2014
  • •]••´º´•» gσσ∂ вує «•´º´••[•



High School Musical 3 (2008) 720p BluRay x264 Dual Audio [English 5.1 + Hindi 2.0] - TBI



Release Info:

Release Name: High School Musical 3 (2008)
Size: 2.00 GiB
Video: AVC | 1280 x 692 | 2000 Kbps | 23.976 FPS | 1.85:1
Audio 1: English | 224 Kbps | 6ch | AAC
Audio 2: Hindi | 224 Kbps | 2ch | AAC
Runtime: 01h 56mn 42sec
Subtitles: No
Source: BDRip.DTS.WiKi

IMDB Info:

Name: High School Musical 3 (2008)
Genre: Comedy | Drama | Family
IMDB:

IMDB Rating: 4.3/10 from 36,427 users
Director: Kenny Ortega
Writers: Peter Barsocchini, Peter Barsocchini (characters)
Cast: Zac Efron, Vanessa Hudgens, Ashley Tisdale
Plot: As seniors in high school, Troy and Gabriella struggle with the idea of being separated from
one another as college approaches. Along with the rest of the Wildcats, they stage a spring musical
to address their experiences, hopes and fears about their future.

Mediainfo
General
Complete name : High School Musical 3 (2008).mp4
Format : MPEG-4
Format profile : Base Media
Codec ID : isom
File size : 2.00 GiB
Duration : 1h 56mn
Overall bit rate mode : Variable
Overall bit rate : 2 456 Kbps

Video
ID : 1
Format : AVC
Format/Info : Advanced Video Codec
Format profile : [email protected]
Format settings, CABAC : Yes
Format settings, ReFrames : 8 frames
Codec ID : avc1
Codec ID/Info : Advanced Video Coding
Duration : 1h 56mn
Bit rate : 2 000 Kbps
Maximum bit rate : 14.7 Mbps
Width : 1 280 pixels
Height : 692 pixels
Display aspect ratio : 1.85:1
Frame rate mode : Constant
Frame rate : 23.976 fps
Color space : YUV
Chroma subsampling : 4:2:0
Bit depth : 8 bits
Scan type : Progressive
Bits/(Pixel*Frame) : 0.094
Stream size : 1.63 GiB (81%)
Writing library : x264 core 130 r2273 b3065e6
Encoding settings : cabac=1 / ref=8 / deblock=1:-2:-2 / analyse=0x3:0x113 / me=umh / subme=9 / psy=1 / psy_rd=1.00:0.00 / mixed_ref=1 / me_range=24 / chroma_me=1 / trellis=1 / 8x8dct=1 / cqm=0 / deadzone=21,11 / fast_pskip=1 / chroma_qp_offset=-2 / threads=3 / lookahead_threads=1 / sliced_threads=0 / nr=0 / decimate=1 / interlaced=0 / bluray_compat=0 / constrained_intra=0 / bframes=8 / b_pyramid=2 / b_adapt=1 / b_bias=0 / direct=1 / weightb=1 / open_gop=0 / weightp=2 / keyint=240 / keyint_min=24 / scenecut=40 / intra_refresh=0 / rc_lookahead=40 / rc=2pass / mbtree=1 / bitrate=2000 / ratetol=1.0 / qcomp=0.60 / qpmin=0 / qpmax=69 / qpstep=4 / cplxblur=20.0 / qblur=0.5 / vbv_maxrate=62500 / vbv_bufsize=78125 / nal_hrd=none / ip_ratio=1.40 / aq=1:1.00
Color primaries : BT.709
Transfer characteristics : BT.709
Matrix coefficients : BT.709

Audio #1
ID : 2
Format : AAC
Format/Info : Advanced Audio Codec
Format profile : LC
Codec ID : 40
Duration : 1h 56mn
Bit rate mode : Variable
Bit rate : 224 Kbps
Maximum bit rate : 243 Kbps
Channel count : 6 channels
Channel positions : Front: L C R, Side: L R, LFE
Sampling rate : 48.0 KHz
Compression mode : Lossy
Stream size : 187 MiB (9%)
Language : English

Audio #2
ID : 3
Format : AAC
Format/Info : Advanced Audio Codec
Format profile : LC
Codec ID : 40
Duration : 1h 56mn
Bit rate mode : Variable
Bit rate : 228 Kbps
Maximum bit rate : 315 Kbps
Channel count : 2 channels
Channel positions : Front: L R
Sampling rate : 48.0 KHz
Compression mode : Lossy
Stream size : 190 MiB (9%)
Language : Hindi

Screenshots:








I KNOW YOU WANT IT
DOWNLOAD AND ENJOY.




[email protected]



Full MOV3 Link!!!













Share this topic on FacebookShare this topic on GoogleShare this topic on MySpaceShare this topic on TwitterShare this topic on Yahoo



Thanks given by:


Tags: TBI 
 

Related Topics





Back to top