+ ShareSpark.net »  :::: Dubbed Zone (Dubbed English in Hindi) » English Movies Dubbed in Hindi » High Resolution Movies
|- Captain America-The Winter Soldier(2014) 1080p BluRay x264[Engl5.1 + Hin5.1]-TBI


Mastercard 10% Off

Captain America-The Winter Soldier(2014) 1080p BluRay x264[Engl5.1 + Hin5.1]-TBI

0 Members and 1 Guest are viewing this topic.

August 13, 2014, 07:33:46 PM
  • •?((¯°·._.• [email protected]ţɨɲ[email protected]ţɨɲ •._.·°¯))؟•
  • Elite Mod (Inactive)
  • Legend Member
  • ****
  • Topic Author
  • Thank You: 1601
  • Reputation: 783
  • Activity:
    0%
  • Posts: 2758
  • Topics: 1761
  • Join Date: Feb 2014
  • •]••´º´•» gσσ∂ вує «•´º´••[•


Captain America - The Winter Soldier (2014) 1080p BluRay x264 Dual Audio [English 5.1 + Hindi 5.1] - TBI





Release Info:

Release Name: Captain America - The Winter Soldier (2014)
Size: 2.32 GiB
Video: AVC | 1920 x 800 | 2000 Kbps | 23.976 FPS | 2.40:1
Audio 1: English | 224 Kbps | 6ch | AC3
Audio 2: Hindi | 224 Kbps | 6ch | AC3
Runtime: 02h 15mn 54sec
Subtitles: No
Source: Bluray.HDCLUB / ~Invincible (Thnxx)

IMDB Info:

Name: Captain America: The Winter Soldier (2014)
Genre: Action | Adventure | Sci-Fi
IMDB:

IMDB Rating: 8.0/10 from 198,509 users
Director: Anthony Russo, Joe Russo
Writers: Christopher Markus (screenplay), Stephen McFeely (screenplay)
Cast: Chris Evans, Samuel L. Jackson, Scarlett Johansson
Plot: Steve Rogers struggles to embrace his role in the modern world and battles a new
threat from old history: the Soviet agent known as the Winter Soldier.

Mediainfo
General
Complete name : Captain America - The Winter Soldier (2014).mp4
Format : MPEG-4
Format profile : Base Media
Codec ID : isom
File size : 2.33 GiB
Duration : 2h 15mn
Overall bit rate : 2 450 Kbps

Video
ID : 1
Format : AVC
Format/Info : Advanced Video Codec
Format profile : [email protected]
Format settings, CABAC : Yes
Format settings, ReFrames : 4 frames
Format settings, GOP : M=1, N=3
Codec ID : avc1
Codec ID/Info : Advanced Video Coding
Duration : 2h 15mn
Bit rate : 2 000 Kbps
Maximum bit rate : 44.0 Mbps
Width : 1 920 pixels
Height : 800 pixels
Display aspect ratio : 2.40:1
Frame rate mode : Constant
Frame rate : 23.976 fps
Color space : YUV
Chroma subsampling : 4:2:0
Bit depth : 8 bits
Scan type : Progressive
Bits/(Pixel*Frame) : 0.054
Stream size : 1.90 GiB (82%)
Writing library : x264 core 130 r2273 b3065e6
Encoding settings : cabac=1 / ref=4 / deblock=1:-1:-1 / analyse=0x3:0x113 / me=umh / subme=9 / psy=1 / psy_rd=1.00:0.00 / mixed_ref=1 / me_range=24 / chroma_me=1 / trellis=1 / 8x8dct=1 / cqm=0 / deadzone=21,11 / fast_pskip=1 / chroma_qp_offset=-2 / threads=6 / lookahead_threads=1 / sliced_threads=0 / nr=0 / decimate=1 / interlaced=0 / bluray_compat=0 / constrained_intra=0 / bframes=4 / b_pyramid=2 / b_adapt=1 / b_bias=0 / direct=1 / weightb=1 / open_gop=0 / weightp=2 / keyint=240 / keyint_min=24 / scenecut=40 / intra_refresh=0 / rc_lookahead=40 / rc=2pass / mbtree=1 / bitrate=2000 / ratetol=1.0 / qcomp=0.60 / qpmin=0 / qpmax=69 / qpstep=4 / cplxblur=20.0 / qblur=0.5 / vbv_maxrate=62500 / vbv_bufsize=78125 / nal_hrd=none / ip_ratio=1.40 / aq=1:1.00
Color primaries : BT.709
Transfer characteristics : BT.709
Matrix coefficients : BT.709

Audio #1
ID : 2
Format : AC-3
Format/Info : Audio Coding 3
Mode extension : CM (complete main)
Format settings, Endianness : Big
Codec ID : ac-3
Duration : 2h 15mn
Bit rate mode : Constant
Bit rate : 224 Kbps
Channel count : 6 channels
Channel positions : Front: L C R, Side: L R, LFE
Sampling rate : 48.0 KHz
Bit depth : 16 bits
Compression mode : Lossy
Stream size : 218 MiB (9%)
Language : English

Audio #2
ID : 3
Format : AC-3
Format/Info : Audio Coding 3
Mode extension : CM (complete main)
Format settings, Endianness : Big
Codec ID : ac-3
Duration : 2h 15mn
Bit rate mode : Constant
Bit rate : 224 Kbps
Channel count : 6 channels
Channel positions : Front: L C R, Side: L R, LFE
Sampling rate : 48.0 KHz
Bit depth : 16 bits
Compression mode : Lossy
Stream size : 218 MiB (9%)
Language : Hindi


Screenshots:













[email protected]





Full MOV3 Link!!!















Share this topic on FacebookShare this topic on GoogleShare this topic on MySpaceShare this topic on TwitterShare this topic on Yahoo

« Last Edit: August 28, 2014, 09:53:04 PM by jatin.jatin »


Thanks given by:


Tags: TBI 
 

Related Topics





Back to top