+ ShareSpark.net »  :::: Hollywood Zone » Hollywood Movies (Original Rips) » High Resolution Movies
|- Batman Gotham by Gaslight 2018 1080p BRRip x264 AAC - Hon3y


Electroncs Sale

Batman Gotham by Gaslight 2018 1080p BRRip x264 AAC - Hon3y

0 Members and 1 Guest are viewing this topic.

January 26, 2018, 11:31:59 PM
  • Addic7ed
  • Royal Member
  • ****
  • Topic Author
  • Thank You: 525
  • Reputation: 189
  • Activity:
    0%
  • Country: np
  • Posts: 1074
  • Topics: 702
  • Join Date: May 2017
  • #Me


 :plot:
Quote
Source:MTeam
Format                      : Matroska
Format version              : Version 4 / Version 2
File size                   : 1.53 GiB
Duration                    : 1 h 17 min
Overall bit rate            : 2 833 kb/s
Movie name                  : Batman.Gotham.by.Gaslight.2018 - Hon3y


Video
ID                          : 1
Format                      : AVC
Format/Info                 : Advanced Video Codec
Format profile              : [email protected]
Format settings, CABAC      : Yes
Format settings, RefFrames  : 4 frames
Codec ID                    : V_MPEG4/ISO/AVC
Duration                    : 1 h 17 min
Bit rate                    : 2 500 kb/s
Width                       : 1 920 pixels
Height                      : 1 080 pixels
Display aspect ratio        : 16:9
Frame rate mode             : Constant
Frame rate                  : 23.976 (24000/1001) FPS
Language                    : English
Default                     : Yes
Forced                      : No
Color range                 : Limited
Color primaries             : BT.709
Transfer characteristics    : BT.709
Matrix coefficients         : BT.709

Audio
ID                          : 2
Format                      : AAC
Format/Info                 : Advanced Audio Codec
Format profile              : LC
Codec ID                    : A_AAC
Duration                    : 1 h 17 min
Bit rate                    : 320 kb/s
Channel(s)                  : 6 channels
Channel positions           : Front: L C R, Side: L R, LFE
Sampling rate               : 48.0 kHz
Frame rate                  : 46.875 FPS (1024 SPF)
Compression mode            : Lossy
Delay relative to video     : 9 ms
Stream size                 : 176 MiB (11%)
Language                    : English
Default                     : Yes
Forced                      : No

Text
ID                          : 3
Format                      : PGS
Muxing mode                 : zlib
Codec ID                    : S_HDMV/PGS
Codec ID/Info               : Picture based subtitle format used on BDs/HD-DVDs
Duration                    : 1 h 16 min
Bit rate                    : 37.3 kb/s
Count of elements           : 2040
Stream size                 : 20.5 MiB (1%)
Language                    : English
Default                     : Yes
Forced                      : No

 :ss: :ss:





 :download: :download:





Share this topic on FacebookShare this topic on GoogleShare this topic on MySpaceShare this topic on TwitterShare this topic on Yahoo




Tags: new 
 

Related Topics

  Subject / Started by Replies Last post
0 Replies
1067 Views
Last post February 07, 2013, 08:33:12 PM
by ♠yαмαиðєv♣
0 Replies
2307 Views
Last post November 21, 2014, 10:57:44 PM
by ♥ Mann ♥
2 Replies
1742 Views
Last post March 26, 2017, 09:32:34 AM
by pasha2101
1 Replies
1628 Views
Last post May 15, 2018, 10:46:51 PM
by shahzaibjaan
0 Replies
1043 Views
Last post January 26, 2018, 09:08:53 PM
by DjiSamSoe




Back to top