+ ShareSpark.net
|- Recent Posts

Mobile Recharge Offer 20% Off

Recent Posts

Pages: 1 2 3 4 ... 10
1
Dear All,


Please upload this on google drive on Urgent Basis.

3





Avengers: Infinity War (2018) ORG Dual Audio 720p BluRay x264 Hindi – English] ESubs

IMDB Ratings: 9.2/10
Directed: Anthony Russo, Joe Russo
Released Date: 27 April 2018 (USA)
Genres: Action, Adventure, Fantasy
Languages: Hindi DD5.1 ORG English
Film Stars: Robert Downey Jr., Chris Hemsworth, Mark Ruffalo
Movie Quality: 720p BluRay
File Size: 1200MB

Story: As the Avengers and their allies have continued to protect the world from threats too large for any one hero to handle, a new danger has emerged from the cosmic shadows: Thanos. A despot of intergalactic infamy, his goal is to collect all six Infinity Stones, artifacts of unimaginable power, and use them to inflict his twisted will on all of reality. Everything the Avengers have fought for has led up to this moment – the fate of Earth and existence itself has never been more uncertain.




 :ss:










 :download:



















5
I Need songs in Original telugu Audio. DTS Master Audio please.
6
excellent work bro....but will it download""???on 4g
8
source tu org BD Hindi 5.1 ki hai na ? ya phir DHT audio ki source hai ?
DTH Wait Karo Abhee 5.1 ka:thumbs::thumbs::thumbs:
9
source tu org BD Hindi 5.1 ki hai na ? ya phir DHT audio ki source hai ?
10
Elizabeth.1998.BluRay.720p.x264.{Dual.Audio}.[Hindi Org-English].-.Hon3yHD









Format : Matroska
Format version : Version 4 / Version 2
File size : 1.32 GiB
Duration : 2 h 3 min
Overall bit rate : 1 530 kb/s

Video
ID : 1
Format : AVC
Format/Info : Advanced Video Codec
Format profile : [email protected]
Format settings : CABAC / 8 Ref Frames
Format settings, CABAC : Yes
Format settings, ReFrames : 8 frames
Codec ID : V_MPEG4/ISO/AVC
Duration : 2 h 3 min
Bit rate : 1 200 kb/s
Width : 1 280 pixels
Height : 692 pixels
Display aspect ratio : 1.85:1
Frame rate mode : Constant
Frame rate : 23.976 (24000/1001) FPS

Audio #1
ID : 2
Format : AAC
Format/Info : Advanced Audio Codec
Format profile : LC
Codec ID : A_AAC-2
Duration : 2 h 3 min
Bit rate : 160 kb/s
Channel(s) : 2 channels
Channel positions : Front: L R
Sampling rate : 48.0 kHz
Frame rate : 46.875 FPS (1024 SPF)
Compression mode : Lossy
Delay relative to video : 1 s 79 ms
Stream size : 141 MiB (10%)
Title : Stereo
Language : Hindi

Audio #2
ID : 3
Format : AAC
Format/Info : Advanced Audio Codec
Format profile : LC
Codec ID : A_AAC-2
Duration : 2 h 3 min
Bit rate : 160 kb/s
Channel(s) : 2 channels
Channel positions : Front: L R
Sampling rate : 48.0 kHz
Stream size : 141 MiB (10%)
Title : Stereo
Language : English




 :ss:










 :download:





















Pages: 1 2 3 4 ... 10


Back to top