+ ShareSpark.net
|- Recent Posts


Recent Posts

Pages: 1 2 3 4 ... 10
1
Ebooks And Students Zone / Re: pitt's New Comics Releases
« Last post by pitt on 23 minutes ago »

Code: [Select]
Venus 01-04
https://k2s.cc/file/8900af4b9ee22/
https://fboom.me/file/8900af4b9ee22/
http://www.filefactory.com/file/6o5q2yiw6ssh/
2
Shabd.2005.1080p.NF-DL.AVC.DDP5.1.Esub -DDR







 :info:
Container.....: Matroska
Duration......: 2 h 25 min
Size..........: 5.32 GiB

Video
Codec.........: AVC
Resolution....: 1920x1080
Bit rate......: 4 592 kb/s
Frame rate....: 24.000

Audio 0
Format........: E-AC-3
Bitrate.......: 640 kb/s
Channel.......: 6 channels at 48.0 kHz
Language......: Hindi

Subtitle 0
Language......: English




 :ss:







 :download:

3
Watchmen (2009) Untouched Hindi Audio Run Time :- 02h42m

Watchmen 2009 Directors Cut Hindi Audio Run Time :- 03h06m

Watchmen (2009) Ultimate Cut Hindi Audio Run Time :- 03h36 (idk)

High quality possible  :india:
4
Prem.Ratan.Dhan.Payo.2015.Blu-Ray.1080p.MHD.x264.DD5.1[HINDI+TAMIL+TELUGU]-DDR






 :info:
Source: FHD Blu-Ray @ DDR

General
Format                                  : Matroska
File size                                : 6.22 GiB
Duration                                 : 2 h 43 min
Overall bit rate                         : 5 437 kb/s
Movie name                              : Prem Ratan Dhan Payo

Video
ID                                      : 1
Format                                  : AVC
Format/Info                              : Advanced Video Codec
Format profile                          : [email protected]
Width                                    : 1 912 pixels
Height                                  : 816 pixels
Display aspect ratio                    : 2.35:1
Frame rate mode                          : Constant
Frame rate                              : 24.000 FPS
Bit depth                                : 8 bits
Scan type                                : Progressive
matrix coefficients                      : BT.709

Audio #1
ID                                      : 2
Format                                  : AC-3
Format/Info                              : Audio Coding 3
Commercial name                          : Dolby Digital
Codec ID                                : A_AC3
Bit rate mode                            : Constant
Bit rate                                : 640 kb/s
Channel(s)                              : 6 channels
Sampling rate                            : 48.0 kHz
Bit depth                                : 16 bits
Compression mode                        : Lossy
Language                                : Hindi


Audio #2
ID                                      : 3
Format                                  : AC-3
Format/Info                              : Audio Coding 3
Commercial name                          : Dolby Digital
Codec ID                                : A_AC3
Bit rate mode                            : Constant
Bit rate                                : 640 kb/s
Channel(s)                              : 6 channels
Sampling rate                            : 48.0 kHz
Bit depth                                : 16 bits
Compression mode                        : Lossy
Language                                : Tamil

Audio #3
ID                                      : 4
Format                                  : AC-3
Format/Info                              : Audio Coding 3
Commercial name                          : Dolby Digital
Codec ID                                : A_AC3
Bit rate mode                            : Constant
Bit rate                                : 640 kb/s
Channel(s)                              : 6 channels
Sampling rate                            : 48.0 kHz
Bit depth                                : 16 bits
Compression mode                        : Lossy
Language                                : Telugu
Text
ID                                      : 5
Format                                  : PGS
Muxing mode                              : zlib
Codec ID                                : S_HDMV/PGS
Codec ID/Info                            : Picture based subtitle format used on BDs/HD-DVDs
Language                                : English




 :ss:






 :download:

5
Mujhse Shaadi Karogi 2002.1080p.BluRay.MHD.x264.DD.5.1-DDR






 :info:
Container......: Matroska
Duration.......: 2 h 39 min 22 s 368 ms
Size...........: 4.59 GiB


Video: Video Details
Codec..........:  [email protected] 8 bits
Type...........: Progressive
Resolution.....: 1920x816
Aspect ratio...: 2.353:1
Bit rate.......: 3 500 kb/s
Frame rate.....: 24.000 FPS

Audio: Audio Details
Format.........: Dolby Digital 
Channels.......: 6 channels
Bit rate.......: 640 kb/s
Language.......: Hindi

Text: Subtitles......: PGS English 




 :ss:





 :download:

6
HeroPanti (2014) Hindi 1080p Untouched WebHD AVC DDP 5.1 {Music Video} ESuBS By-DuSiCTV






:info:

General
Format                                   : Matroska
Format version                           : Version 4
File size                                : 1.13 GB
Overall bit rate                         : 7 872 kb/s
Writing application : mkvmerge v26.0.0 ('In The Game') 64-bit
Writing library  : libebml v1.3.6 + libmatroska v1.4.9

Video
ID                                       : 1
Format                                   : AVC
Format/Info                              : Advanced Video Codec
Format profile                           : [email protected]
Format settings                          : CABAC / 3 Ref Frames
Format settings, CABAC                   : Yes
Format settings, RefFrames               : 3 frames
Codec ID                                 : V_MPEG4/ISO/AVC
Bit rate                                 : 7 539 kb/s
Width                                    : 1 920 pixels
Height                                   : 1 080 pixels
Display aspect ratio                     : 16:9
Frame rate mode                          : Constant
Frame rate                               : 25.000 FPS
Color space                              : YUV
Chroma subsampling                       : 4:2:0
Bit depth                                : 8 bits
Scan type                                : Progressive
Bits/(Pixel*Frame)                       : 0.145
Stream size                              : 227 MiB (95%)
Default                                  : Yes
Forced                                   : No

Audio
ID                                       : 2
Format                                   : AC-3
Format/Info                              : Audio Coding 3
Commercial name                          : Dolby Digital
Codec ID                                 : A_AC3
Bit rate mode                            : Constant
Bit rate                                 : 384 kb/s
Channel(s)                               : 6 channels
Channel layout                           : L R C LFE Ls Rs
Sampling rate                            : 48.0 kHz
Frame rate                               : 31.250 FPS (1536 SPF)
Bit depth                                : 16 bits
Compression mode                         : Lossy
Delay relative to video                  : 16 ms
Stream size                              : 11.6 MiB (5%)
Language                                 : Hindi
Service kind                             : Complete Main
Default                                  : Yes
Forced                                   : No

Text
ID                                       : 3
Format                                   : UTF-8
Codec ID                                 : S_TEXT/UTF8
Codec ID/Info                            : UTF-8 Plain Text
\Bit rate                                 : 45 b/s
Count of elements                        : 29
Stream size                              : 1.21 KiB (0%)
Language                                 : English
Default                                  : Yes
Forced                                   : No


:ss:


 :download:

7
Hadh Kar Di Aapne (2000) Hindi 1080p Untouched WebHD AVC DD Plus 2.0 {Music Video} - DusIcTv





 :info:
Format                         : Matroska
Format version                 : Version 4
File size                      : 1.36 GB
Overall bit rate               : 9 021 kb/s
Writing application : mkvmerge v32.0.0 ('Astral Progressions') 32-bit
Writing library : libebml v1.3.7 + libmatroska v1.5.0


Video
ID                             : 1
Format                         : AVC
Format/Info                    : Advanced Video Codec
Format profile                 : [email protected]
Format settings                : CABAC / 4 Ref Frames
Format settings, CABAC         : Yes
Format settings, ReFrames      : 4 frames
Codec ID                       : V_MPEG4/ISO/AVC
Bit rate                       : 8 845 kb/s
Width                          : 1 920 pixels
Height                         : 1 080 pixels
Display aspect ratio           : 16:9
Frame rate mode                : Constant
Frame rate                     : 25.000 FPS
Color space                    : YUV
Chroma subsampling             : 4:2:0
Bit depth                      : 8 bits
Scan type                      : Progressive
Bits/(Pixel*Frame)             : 0.171
Stream size                    : 233 MiB (98%)
Default                        : Yes
Forced                         : No
Color range                    : Limited
Color primaries                : BT.709
Transfer characteristics       : BT.709
Matrix coefficients            : BT.709


Audio
ID                             : 2
Format                         : E-AC-3
Format/Info                    : Enhanced AC-3
Commercial name                : Dolby Digital Plus
Codec ID                       : A_EAC3
Bit rate mode                  : Constant
Bit rate                       : 224 kb/s
Channel(s)                     : 2 channels
Channel layout                 : L R
Sampling rate                  : 48.0 kHz
Frame rate                     : 31.250 FPS (1536 SPF)
Compression mode               : Lossy
Delay relative to video        : 8 ms
Stream size                    : 5.90 MiB (2%)
Title                          : Hindi
Language                       : Hindi
Service kind                   : Complete Main
Default                        : No
Forced                         : No


Text
ID                             : 3
Format                         : UTF-8
Codec ID                       : S_TEXT/UTF8
Codec ID/Info                  : UTF-8 Plain Text
Bit rate                       : 55 b/s
Count of elements              : 44
Stream size                    : 1.41 KiB (0%)
Title                          : English [SDH]
Language                       : English
Default                        : No
Forced                         : No




 :ss:










 :download:

8
Thanks a lot bro. You are the only remaining consistent uploader for this bollywood stuff. Hats off. :hats:
 :rep: :thank:

Please upload more classics like this one. Here are suggestions : Satyam Shivam Sundaram and Agneepath.
Thanks for your uploads again. Cheers.
9
Hum Tum Pe Marte Hain (1999) [FLAC] - DT




 :plot:
Source : DT
Album : Hum Tum Pe Marte Hain (1999)
Music : Uttam Singh








Credit Goes To : azeem uddin @ DT
 :download:

10
Hindi Mp3 Songs / Re: Yeh hai Jalwa [FLAC - 2002]
« Last post by TARAN BAURI on 1 hour ago »
 :thank: :thank: :thank: :10on10: :10on10:
Pages: 1 2 3 4 ... 10



Back to top