ShareSpark.net

:::: Bollywood Zone => Indian TV Shows => Topic started by: тнє ωαll 81317 on January 03, 2017, 01:46:00 PM

Title: The Kapil Sharma Show (2017) Ep70 Untouched WEB-DL AAC - Hon3yHD
Post by: тнє ωαll 81317 on January 03, 2017, 01:46:00 PM
   
The Kapil Sharma Show (2017) Ep70 Untouched WEB-DL AAC - Hon3yHD   



Poster

(http://extraimago.com/images/2016/06/27/SS.jpg)


(http://i.imgur.com/f1xNw8K.gif)


(https://extraimage.net/images/2017/01/03/65bcae1bb4fbbd199cc96678241c0327.jpg)



(http://i.imgur.com/tR6EUK8.gif)



General
Format                                   : MPEG-4
Format profile                           : Base Media
Codec ID                                 : isom (isom/iso2/avc1/mp41)
File size                                : 684 MiB
Duration                                 : 1 h 26 min
Overall bit rate mode                    : Variable
Overall bit rate                         : 1 101 kb/s
Writing application                      : Lavf56.40.101

Video
ID                                       : 1
Format                                   : AVC
Format/Info                              : Advanced Video Codec
Format profile                           : [email protected]
Format settings, CABAC                   : Yes
Format settings, ReFrames                : 3 frames
Format settings, GOP                     : M=1, N=50
Codec ID                                 : avc1
Codec ID/Info                            : Advanced Video Coding
Duration                                 : 1 h 26 min
Bit rate                                 : 999 kb/s
Width                                    : 640 pixels
Height                                   : 338 pixels
Display aspect ratio                     : 1.893
Frame rate mode                          : Constant
Frame rate                               : 25.000 FPS
Color space                              : YUV
Chroma subsampling                       : 4:2:0
Bit depth                                : 8 bits
Scan type                                : Progressive
Bits/(Pixel*Frame)                       : 0.185
Stream size                              : 621 MiB (91%)
Writing library                          : Zencoder Video Encoding System
Color range                              : Limited
Color primaries                          : BT.709
Transfer characteristics                 : BT.709
Matrix coefficients                      : BT.709

Audio
ID                                       : 2
Format                                   : AAC
Format/Info                              : Advanced Audio Codec
Format profile                           : LC
Codec ID                                 : 40
Duration                                 : 1 h 26 min
Bit rate mode                            : Variable
Bit rate                                 : 96.0 kb/s
Maximum bit rate                         : 104 kb/s
Channel(s)                               : 2 channels
Channel positions                        : Front: L R
Sampling rate                            : 44.1 kHz
Frame rate                               : 43.066 FPS (1024 spf)
Compression mode                         : Lossy
Stream size                              : 59.6 MiB (9%)
Default                                  : Yes
Alternate group                          : 1



All Credit Goes To Orignal Uploader




      
http://uptobox.com/hg688jd2ed6l

https://bdupload.info/7qs9t2ut856k

http://www.indishare.me/78wx679542ru

http://www.multiup.org/f1a0bb8770100b1718da1339de435763



      
      

Title: Re: The Kapil Sharma Show (2017) Ep70 Untouched WEB-DL AAC - Hon3yHD
Post by: NikS97 on January 03, 2017, 05:25:27 PM
 :thank: :thank: