ShareSpark.net

:::: Hollywood Zone => Hollywood Movies (Original Rips) => Animation Movies => Topic started by: ♥[--K4Krish--]♥ on December 12, 2016, 12:47:29 PM

Title: The LEGO Movie (2014) US (1080p Bluray x265 HEVC 10bit AAC 5.1 Tigole) [UTR]
Post by: ♥[--K4Krish--]♥ on December 12, 2016, 12:47:29 PM
:info:
The LEGO Movie (2014) US (1080p Bluray x265 HEVC 10bit AAC 5.1 Tigole) [UTR]

(http://extraimage.net/images/2016/02/25/gv8mpWw.png)
(http://ecx.images-amazon.com/images/I/91oSga5o-yL._SX425_.jpg)


:info:
General
Format : Matroska
Format version : Version 4 / Version 2
File size : 2.04 GiB
Duration : 1h 40mn
Overall bit rate : 2 905 Kbps
Encoded date : UTC 2016-11-29 08:20:22
Writing application : mkvmerge v9.4.0 (\'Knurl\') 64bit
Writing library : libebml v1.3.4 + libmatroska v1.4.5

Video
ID : 1
Format : HEVC
Format/Info : High Efficiency Video Coding
Format profile : Main [email protected]@Main
Codec ID : V_MPEGH/ISO/HEVC
Duration : 1h 40mn
Bit rate : 2 476 Kbps
Width : 1 920 pixels
Height : 800 pixels
Display aspect ratio : 2.40:1
Frame rate mode : Constant
Frame rate : 23.976 (24000/1001) fps
Color space : YUV
Chroma subsampling : 4:2:0
Bit depth : 10 bits
Bits/(Pixel*Frame) : 0.067
Stream size : 1.74 GiB (85%)
Default : Yes
Forced : No

Audio #1
ID : 2
Format : AAC
Format/Info : Advanced Audio Codec
Format profile : LC
Codec ID : A_AAC
Duration : 1h 40mn
Bit rate : 336 Kbps
Channel(s) : 6 channels
Channel positions : Front: L C R, Side: L R, LFE
Sampling rate : 48.0 KHz
Frame rate : 46.875 fps (1024 spf)
Compression mode : Lossy
Delay relative to video : 20ms
Stream size : 242 MiB (12%)
Language : English
Default : Yes
Forced : No

Audio #2
ID : 3
Format : AAC
Format/Info : Advanced Audio Codec
Format profile : HE-AAC / LC
Codec ID : A_AAC
Duration : 1h 40mn
Bit rate : 66.2 Kbps
Channel(s) : 2 channels
Channel positions : Front: L R
Sampling rate : 48.0 KHz / 24.0 KHz
Frame rate : 23.438 fps (1024 spf)
Compression mode : Lossy
Delay relative to video : 40ms
Stream size : 47.3 MiB (2%)
Title : Commentary
Language : English
Default : No
Forced : No

Text #1
ID : 4
Format : VobSub
Muxing mode : zlib
Codec ID : S_VOBSUB
Codec ID/Info : Picture based subtitle format used on DVDs
Duration : 1h 39mn
Bit rate : 9 241 bps
Count of elements : 2154
Stream size : 6.60 MiB (0%)
Language : English
Default : No
Forced : No





:ss:
(http://thumbnails115.imagebam.com/51817/b2b24c518165610.jpg) (http://thumbnails116.imagebam.com/51817/aa57e0518165611.jpg) (http://thumbnails115.imagebam.com/51817/5fb4c8518165617.jpg) (http://thumbnails116.imagebam.com/51817/1396fe518165614.jpg)

:download:
http://torrable.com/mirrors/4511d4e8