+ ShareSpark.net »  :::: Bollywood Zone » Regional Movies
|- Chhello Divas (2016) Gujarati 720p HDRip x264 Eng-Sub - MoviesBay [850Mb]


Chhello Divas (2016) Gujarati 720p HDRip x264 Eng-Sub - MoviesBay [850Mb]

0 Members and 1 Guest are viewing this topic.

October 09, 2017, 02:45:40 PM
  • ♫♫♣ B૦ՐՈ T૦ H૯Նƿ ♣♫♫
  • Elite Moderator
  • Legend Member
  • ****
  • Topic Author
  • Thank You: 1079
  • Reputation: 724
  • Activity:
    79.6%
  • Country: dk
  • Posts: 2710
  • Topics: 1192
  • Join Date: Jan 2013
  • ♠§§ Dσп'т Tαʟκ Jυƨт Acт §§ Dσп'т Sαч Jυƨт Sнσш §§♠
:title:
Chhello Divas (2016) Gujarati 720p HDRip x264 Eng-Sub - MoviesBay




:info:
General
Format :   Matroska
Format version :   Version 4 / Version 2
File size :   841 MiB
Duration :   2 h 24 min
Overall bit rate :   815 kb/s
Movie name :   Chhello Divas 2016 Gujarati 720p HDRip x264 Eng-Sub 850Mb -MoviesBay
Encoded date :   UTC 2017-10-09 09:12:22
Writing application :   mkvmerge v13.0.0 ('The Juggler') 32bit
Writing library :   libebml v1.3.4 + libmatroska v1.4.5

Video
ID :   1
Format :   AVC
Format/Info :   Advanced Video Codec
Format profile :   Main@L4
Format settings, CABAC :   Yes
Format settings, RefFrames :   4 frames
Codec ID :   V_MPEG4/ISO/AVC
Duration :   2 h 24 min
Bit rate :   750 kb/s
Width :   1 280 pixels
Height :   560 pixels
Display aspect ratio :   2.35:1
Original display aspect ratio :   2.35:1
Frame rate mode :   Constant
Frame rate :   23.976 (24000/1001) FPS
Color space :   YUV
Chroma subsampling :   4:2:0
Bit depth :   8 bits
Scan type :   Progressive
Bits/(Pixel*Frame) :   0.044
Stream size :   774 MiB (92%)
Writing library :   x264 core 148 r2708 86b7198
Default :   Yes
Forced :   No
Color range :   Limited
Color primaries :   BT.709
Transfer characteristics :   BT.709
Matrix coefficients :   BT.709

Audio
ID :   2
Format :   AAC
Format/Info :   Advanced Audio Codec
Format profile :   LC
Codec ID :   A_AAC
Duration :   2 h 24 min
Bit rate :   63.4 kb/s
Channel(s) :   2 channels
Channel positions :   Front: L R
Sampling rate :   22.05 kHz
Frame rate :   21.533 FPS (1024 SPF)
Compression mode :   Lossy
Delay relative to video :   -31 ms
Stream size :   65.4 MiB (8%)
Title :   Gujarati
Default :   Yes
Forced :   No

:ss:


:download:






Share this topic on FacebookShare this topic on GoogleShare this topic on MySpaceShare this topic on TwitterShare this topic on Yahoo




If U like any post, then say thanks 2 d uploader by posting in his topic, adding thanks & reputes 2 him.:)

Tags:
 

Related Topics

  Subject / Started by Replies Last post
2 Replies
854 Views
Last post November 29, 2015, 02:52:14 PM
by rflxn143
3 Replies
955 Views
Last post November 30, 2015, 03:27:00 PM
by ★·.·★ Vίјάy ★·.·★
0 Replies
447 Views
Last post November 29, 2015, 06:39:32 PM
by ddr©catchme
1 Replies
644 Views
Last post December 02, 2015, 09:46:34 PM
by parth.patel
1 Replies
961 Views
Last post July 22, 2016, 12:26:10 PM
by manishm2p




Back to top