+ ShareSpark.net »  :::: Bollywood Zone » Indian TV Shows
|- IPL 2018 KKR vs KXI HIGHLIGHTS - Match 18 1080p x264 WEB-DL AAC [Team SSX]

Subscribe and Save

IPL 2018 KKR vs KXI HIGHLIGHTS - Match 18 1080p x264 WEB-DL AAC [Team SSX]

0 Members and 1 Guest are viewing this topic.

April 22, 2018, 10:02:29 AM
  • *****************
  • Head Admin
  • Legend Member
  • *****
  • Topic Author
  • Thank You: 6307
  • Reputation: 2773
  • Activity:
    100%
  • Country: in
  • Posts: 18361
  • Topics: 10818
  • Join Date: Mar 2012
  • The Time Is Now......
IPL 2018 KKR vs KXI HIGHLIGHTS - Match 18 1080p x264 WEB-DL AAC [Team SSX]

General

Format                                   : Matroska
Format version                           : Version 4 / Version 2
File size                                : 424 MiB
Duration                                 : 12 min 59 s
Overall bit rate                         : 4 565 kb/s


Video
ID                                       : 1
Format                                   : AVC
Format/Info                              : Advanced Video Codec
Format profile                           : [email protected]
Format settings                          : 1 Ref Frames
Format settings, CABAC                   : No
Format settings, RefFrames               : 1 frame
Codec ID                                 : V_MPEG4/ISO/AVC
Duration                                 : 12 min 59 s
Bit rate mode                            : Constant
Bit rate                                 : 4 500 kb/s
Width                                    : 1 920 pixels
Height                                   : 1 080 pixels
Display aspect ratio                     : 16:9
Frame rate mode                          : Constant
Frame rate                               : 25.000 FPS
Color space                              : YUV
Chroma subsampling                       : 4:2:0
Bit depth                                : 8 bits
Scan type                                : Progressive
Bits/(Pixel*Frame)                       : 0.087
Stream size                              : 418 MiB (99%)
Default                                  : Yes
Forced                                   : No

Audio
ID                                       : 2
Format                                   : AAC
Format/Info                              : Advanced Audio Codec
Format profile                           : LC
Codec ID                                 : A_AAC-2
Duration                                 : 12 min 59 s
Bit rate                                 : 61.4 kb/s
Channel(s)                               : 2 channels
Channel positions                        : Front: L R
Sampling rate                            : 48.0 kHz
Frame rate                               : 46.875 FPS (1024 SPF)
Compression mode                         : Lossy
Delay relative to video                  : -33 ms
Stream size                              : 5.70 MiB (1%)
Language                                 : English
Default                                  : Yes
Forced                                   : No































Share this topic on FacebookShare this topic on GoogleShare this topic on MySpaceShare this topic on TwitterShare this topic on Yahoo




Tags:
 

Related Topics




Back to top