+ ShareSpark.net »  :::: Bollywood Zone » Regional Movies
|- Lava Kusa (2015)-telugu movie - 1cd - dvdscr rip - 700MB- MP3 - D3SIM

DTH Recharges 20% Back

Lava Kusa (2015)-telugu movie - 1cd - dvdscr rip - 700MB- MP3 - D3SIM

0 Members and 1 Guest are viewing this topic.

June 24, 2015, 05:59:29 PM
  • Semi Newbie
  • **
  • Topic Author
  • Thank You: 0
  • Reputation: 0
  • Activity:
    0%
  • Country: in
  • Posts: 7
  • Topics: 6
  • Join Date: Jun 2015
  • ShareSpark Member




General
Complete name                            : Lava Kusa (2015).mp4
Format                                   : MPEG-4
Format profile                           : Base Media
Codec ID                                 : isom
File size                                : 701 MiB
Duration                                 : 1h 52mn
Overall bit rate                         : 869 Kbps

Video
ID                                       : 1
Format                                   : AVC
Format/Info                              : Advanced Video Codec
Format profile                           : [email protected]
Format settings, CABAC                   : Yes
Format settings, ReFrames                : 4 frames
Codec ID                                 : avc1
Codec ID/Info                            : Advanced Video Coding
Duration                                 : 1h 52mn
Bit rate                                 : 770 Kbps
Maximum bit rate                         : 1 689 Kbps
Width                                    : 640 pixels
Height                                   : 368 pixels
Display aspect ratio                     : 1.739
Frame rate mode                          : Constant
Frame rate                               : 23.976 fps
Color space                              : YUV
Chroma subsampling                       : 4:2:0
Bit depth                                : 8 bits
Scan type                                : Progressive
Bits/(Pixel*Frame)                       : 0.136
Stream size                              : 620 MiB (89%)
Audio
ID                                       : 2
Format                                   : MPEG Audio
Format version                           : Version 1
Format profile                           : Layer 3
Mode                                     : Joint stereo
Codec ID                                 : 6B
Duration                                 : 1h 52mn
Bit rate mode                            : Constant
Bit rate                                 : 96.0 Kbps
Maximum bit rate                         : 100 Kbps
Channel(s)                               : 2 channels
Sampling rate                            : 44.1 KHz
Compression mode                         : Lossy
Stream size                              : 77.4 MiB (11%)














Share this topic on FacebookShare this topic on GoogleShare this topic on MySpaceShare this topic on TwitterShare this topic on Yahoo

« Last Edit: June 24, 2015, 06:02:15 PM by taraak »



Tags:
 

Related Topics

  Subject / Started by Replies Last post
0 Replies
544 Views
Last post June 24, 2015, 12:55:30 PM
by taraak
0 Replies
660 Views
Last post June 25, 2015, 09:10:06 PM
by sagarsingha
0 Replies
576 Views
Last post September 29, 2017, 08:33:25 PM
by Rabasha
0 Replies
972 Views
Last post January 15, 2018, 05:53:23 PM
by PSYCHO
0 Replies
956 Views
Last post January 20, 2018, 10:57:24 AM
by UnikAaYush



Back to top