+ ShareSpark.net »  :::: Bollywood Zone » Bollywood Movies (Original Rips)
|- Shaadi Ke Side Effects (2014) 720p Blu-Ray x264 - AC3 - 5.1 - ESubs - Mafiaking - [D3Si MaNiaCs]


10% SBI and 10% Discount
  • Shaadi Ke Side Effects (2014) 720p Blu-Ray x264 - AC3 - 5.1 - ESubs - Mafiaking - [D3Si MaNiaCs] 5 1
Currently:  

Shaadi Ke Side Effects (2014) 720p Blu-Ray x264 - AC3 - 5.1 - ESubs - Mafiaking - [D3Si MaNiaCs]

0 Members and 1 Guest are viewing this topic.

May 01, 2014, 01:44:37 PM
  • Elite Mod (Inactive)
  • Legend Member
  • ****
  • Topic Author
  • Thank You: 574
  • Reputation: 291
  • Activity:
    0%
  • Country: in
  • Posts: 1665
  • Topics: 577
  • Join Date: Aug 2012
  • ShareSpark Member
  • Expertises:
  • Bollywood Movies
  • Internet Tips & Tricks



Info
Code: [Select]
IMDB Rating: 5.7/10.0


GENRE: Comedy | Romance



General
Unique ID : 178198899942343295909424041385890478706 (0x860FDC184957372C983F6D4CDF84FA72)
Complete name : Shaadi Ke Side Effects (2014) 720p Blu-Ray x264 - AC3 - 5.1 - ESubs - Mafiaking - [D3Si MaNiaCs].mkv
Format : Matroska
Format version : Version 4 / Version 2
File size : 1.09 GiB
Duration : 2h 22mn
Overall bit rate : 1 094 Kbps
Movie name : Shaadi Ke Side Effects (2014) 720p Blu-Ray x264 - AC3 - 5.1 - ESubs - Mafiaking - [D3Si MaNiaCs]
Encoded date : UTC 2014-04-28 10:58:31
Writing application : mkvmerge v6.5.0 ('Isn't she lovely') built on Oct 20 2013 12:50:05
Writing library : libebml v1.3.0 + libmatroska v1.4.1


Video
ID : 1
Format : AVC
Format/Info : Advanced Video Codec
Format profile : [email protected]
Format settings, CABAC : Yes
Format settings, ReFrames : 4 frames
Codec ID : V_MPEG4/ISO/AVC
Duration : 2h 22mn
Bit rate : 900 Kbps
Width : 1 280 pixels
Height : 544 pixels
Display aspect ratio : 2.35:1
Frame rate mode : Constant
Frame rate : 24.000 fps
Color space : YUV
Chroma subsampling : 4:2:0
Bit depth : 8 bits
Scan type : Progressive
Bits/(Pixel*Frame) : 0.054
Stream size : 894 MiB (80%)
Title : Mafiaking
Language : Hindi
Default : Yes
Forced : No

Audio
ID : 2
Format : AC-3
Format/Info : Audio Coding 3
Mode extension : CM (complete main)
Format settings, Endianness : Big
Codec ID : A_AC3
Duration : 2h 22mn
Bit rate mode : Constant
Bit rate : 192 Kbps
Channel(s) : 6 channels
Channel positions : Front: L C R, Side: L R, LFE
Sampling rate : 48.0 KHz
Bit depth : 16 bits
Compression mode : Lossy
Stream size : 195 MiB (18%)
Title : Mafiaking
Language : Hindi
Default : Yes
Forced : No

ScreenShots








Download Links
Code: [Select]
http://hugefiles.net/c0uv07ck0a68

http://uptobox.com/6ril9h2huq6e

http://davvas.com/hj1ixizheitg

http://epicshare.net/v648my46q8sw

http://180upload.com/f9s23573hct5

http://BillionUploads.com/r2afucnlr4pf

http://mightyupload.com/0v7g3zdodhfg

http://lemuploads.com/v648my46q8sw



I have Finished My Work.Now Its Your Turn To Say Thanks And Add Reputation.

Share this topic on FacebookShare this topic on GoogleShare this topic on MySpaceShare this topic on TwitterShare this topic on Yahoo



Tech Reviewer at : -

Thanks given by:


May 01, 2014, 03:51:07 PM
Reply #1
  • TeAm RoG{Republic of Gamers}COoL meMbeR
  • Senior Member
  • ***
  • Thank You: 38
  • Reputation: 33
  • Activity:
    0%
  • Country: in
  • Posts: 286
  • Topics: 32
  • Join Date: Sep 2013

May 01, 2014, 07:37:44 PM
Reply #2
  • Special Member
  • ****
  • Thank You: 0
  • Reputation: 0
  • Activity:
    0%
  • Country: bd
  • Posts: 750
  • Topics: 1
  • Join Date: May 2013
  • ShareSpark Member

May 07, 2014, 11:31:19 AM
Reply #3
  • Devoted Member
  • **
  • Thank You: 3
  • Reputation: 1
  • Activity:
    0.2%
  • Posts: 155
  • Topics: 5
  • Join Date: Aug 2013
  • ShareSpark Member

 

Related Topics





Back to top