+ ShareSpark.net »  :::: Hollywood Zone » Hollywood Movies (Original Rips) » High Resolution Movies
|- Odd Thomas (2013) 1080p BluRay x264 [1.7GB]


Odd Thomas (2013) 1080p BluRay x264 [1.7GB]

0 Members and 1 Guest are viewing this topic.

June 13, 2017, 07:58:40 PM
  • Team SSX
  • Royal Member
  • ***
  • Topic Author
  • Thank You: 156
  • Reputation: 143
  • Activity:
    37.8%
  • Country: in
  • Posts: 923
  • Topics: 196
  • Join Date: Nov 2011
  • ShareSpark Member


Odd.Thomas.2013.1080p.BluRay.x264.anoXmous

:imdb:
Odd, a cook, can see the dead. When a stranger enters his town along with predators that can feed on pain, Odd teams up with his girlfriend and the local sheriff to save the town.

:info:
General
Complete name : C:\Users\Tushar\Downloads\Odd.Thomas.2013.1080p.BluRay.x264.anoXmous\Odd.Thomas.2013.1080p.BluRay.x264.anoXmous_.mp4
Format : MPEG-4
Format profile : Base Media
Codec ID : isom (isom/avc1)
File size : 1.67 GiB
Duration : 1 h 36 min
Overall bit rate mode : Variable
Overall bit rate : 2 473 kb/s
Encoded date : UTC 2013-10-31 00:44:20
Tagged date : UTC 2013-10-31 00:44:20

Video
ID : 1
Format : AVC
Format/Info : Advanced Video Codec
Format profile : [email protected]
Format settings, CABAC : Yes
Format settings, ReFrames : 4 frames
Codec ID : avc1
Codec ID/Info : Advanced Video Coding
Duration : 1 h 36 min
Bit rate : 1 967 kb/s
Maximum bit rate : 13.5 Mb/s
Width : 1 920 pixels
Height : 800 pixels
Display aspect ratio : 2.40:1
Frame rate mode : Constant
Frame rate : 23.976 (24000/1001) FPS
Color space : YUV
Chroma subsampling : 4:2:0
Bit depth : 8 bits
Scan type : Progressive
Bits/(Pixel*Frame) : 0.053
Stream size : 1.33 GiB (80%)
Encoded date : UTC 2013-10-31 00:44:20
Tagged date : UTC 2013-10-31 00:44:49

Audio
ID : 2
Format : AAC
Format/Info : Advanced Audio Codec
Format profile : LC
Codec ID : 40
Duration : 1 h 36 min
Bit rate mode : Variable
Bit rate : 184 kb/s
Nominal bit rate : 384 kb/s
Maximum bit rate : 429 kb/s
Channel(s) : 6 channels
Channel positions : Front: L C R, Side: L R, LFE
Sampling rate : 48.0 kHz
Frame rate : 46.875 FPS (1024 spf)
Compression mode : Lossy
Stream size : 127 MiB (7%)
Language : English
Encoded date : UTC 2013-10-30 17:35:14
Tagged date : UTC 2013-10-31 00:44:49

:ss:






:download:







Share this topic on FacebookShare this topic on GoogleShare this topic on MySpaceShare this topic on TwitterShare this topic on Yahoo

« Last Edit: June 13, 2017, 08:01:42 PM by -Tushar- »


:bounce:
  :bounce:

Thanks given by:


June 13, 2017, 09:32:49 PM
Reply #1
  • Elite Member
  • ***
  • Thank You: 18
  • Reputation: 0
  • Activity:
    17.2%
  • Country: bd
  • Posts: 465
  • Topics: 10
  • Join Date: Jun 2017
  • ShareSpark Member

June 14, 2017, 11:11:39 AM
Reply #2
  • Royal Member
  • ****
  • Thank You: 5
  • Reputation: 2
  • Activity:
    3.6%
  • Country: in
  • Posts: 879
  • Topics: 8
  • Join Date: Aug 2013
  • ShareSpark Member
Thank you so much bro.... 

 :thank: :thank: :rep:

 

Related Topics

  Subject / Started by Replies Last post
2 Replies
805 Views
Last post October 22, 2013, 07:17:33 PM
by mahe8h
1 Replies
448 Views
Last post October 22, 2013, 04:11:03 PM
by ıllıllı αнʍє иυя ıllıllı
0 Replies
333 Views
Last post October 23, 2013, 07:21:25 PM
by @m!t
2 Replies
672 Views
Last post October 25, 2013, 11:15:56 AM
by @m!t
2 Replies
719 Views
Last post April 02, 2014, 05:29:56 PM
by ıllıllı αнʍє иυя ıllıllı




Back to top