+ ShareSpark.net »  :::: Dubbed Zone (Dubbed English in Hindi) » English Movies Dubbed in Hindi » Dubbed Hindi Audio Files
|- Thor Duology (2011-2013) Hindi Audio 5.1CH


Thor Duology (2011-2013) Hindi Audio 5.1CH

0 Members and 1 Guest are viewing this topic.

June 03, 2017, 04:26:20 PM
  • Team SSX
  • Royal Member
  • ***
  • Topic Author
  • Thank You: 156
  • Reputation: 143
  • Activity:
    37.8%
  • Country: in
  • Posts: 923
  • Topics: 196
  • Join Date: Nov 2011
  • ShareSpark Member


Thor Duology (2011-2013) Hindi Audio 5.1CH

Movie:






Thor (2011) Hindi Audio 5.1ch - Team_AK

 :info:
General
Unique ID : 248989308362544064885294563464700987090 (0xBB5198B2F6B3E54F3D8F667F9A0386D2)
Complete name : /root/Downloads/Thor (2011) 720p BRRip x264 Dual Audio [English 5.1 + Hindi 5.1] - Team_AK/Thor (2011) 720p Dual Audio by - Team_AK_Hindi_Audio.mka
Format : Matroska
Format version : Version 4 / Version 2
File size : 211 MiB
Duration : 1h 54mn
Overall bit rate mode : Constant
Overall bit rate : 257 Kbps
Encoded date : UTC 2017-06-03 10:01:55
Writing application : mkvmerge v8.8.0 ('Wind at my back') 64bit
Writing library : libebml v1.3.3 + libmatroska v1.4.4

Audio
ID : 1
Format : AC-3
Format/Info : Audio Coding 3
Mode extension : CM (complete main)
Format settings, Endianness : Big
Codec ID : A_AC3
Duration : 1h 54mn
Bit rate mode : Constant
Bit rate : 256 Kbps
Channel(s) : 6 channels
Channel positions : Front: L C R, Side: L R, LFE
Sampling rate : 48.0 KHz
Frame rate : 31.250 fps (1536 spf)
Compression mode : Lossy
Stream size : 210 MiB (100%)
Language : Hindi
Default : Yes
Forced : No

 :download:











Thor - The Dark World (2013) Hindi Audio 5.1ch Team_AK

 :info:
General
Unique ID : 177286776055894443589067332682451705955 (0x856030EA4A6A34A266AC57B44142E063)
Complete name : /root/Downloads/Thor - The Dark World (2013) 720p BRRip x264 Dual Audio [English 5.1 + Hindi 5.1] - Team_AK/Thor - The Dark World (2013) 720p - Team_AK_Hindi_Audio.mka
Format : Matroska
Format version : Version 4 / Version 2
File size : 206 MiB
Duration : 1h 52mn
Overall bit rate mode : Constant
Overall bit rate : 257 Kbps
Encoded date : UTC 2017-06-03 10:02:22
Writing application : mkvmerge v8.8.0 ('Wind at my back') 64bit
Writing library : libebml v1.3.3 + libmatroska v1.4.4

Audio
ID : 1
Format : AC-3
Format/Info : Audio Coding 3
Mode extension : CM (complete main)
Format settings, Endianness : Big
Codec ID : A_AC3
Duration : 1h 52mn
Bit rate mode : Constant
Bit rate : 256 Kbps
Channel(s) : 6 channels
Channel positions : Front: L C R, Side: L R, LFE
Sampling rate : 48.0 KHz
Frame rate : 31.250 fps (1536 spf)
Compression mode : Lossy
Stream size : 205 MiB (100%)
Language : Hindi
Default : Yes
Forced : No

 :download:








Share this topic on FacebookShare this topic on GoogleShare this topic on MySpaceShare this topic on TwitterShare this topic on Yahoo



:bounce:
  :bounce:

Tags: Thor Duology 2011 2013 audio hindi 
 

Related Topics





Back to top