+ ShareSpark.net »  :::: Dubbed Zone (Dubbed English in Hindi) » English Movies Dubbed in Hindi
|- The Big Kahuna (1999).480p.DvDRip.x264.[Dual Audio] [Hindi+English].by [email protected] [E


The Big Kahuna (1999).480p.DvDRip.x264.[Dual Audio] [Hindi+English].by [email protected] [E

0 Members and 1 Guest are viewing this topic.

May 29, 2014, 08:42:27 PM
  • •?((¯°·._.• [email protected]ţɨɲ[email protected]ţɨɲ •._.·°¯))؟•
  • Elite Mod (Inactive)
  • Legend Member
  • ****
  • Topic Author
  • Thank You: 1589
  • Reputation: 782
  • Activity:
    0%
  • Posts: 2759
  • Topics: 1761
  • Join Date: Feb 2014
  • •]••´º´•» gσσ∂ вує «•´º´••[•



 



The Big Kahuna (1999).480p.DvDRip.x264.[Dual Audio] [Hindi+English].by [email protected] [ExD Exclusive]







Format : Matroska
Format version : Version 2
File size : 743 MiB
Duration : 1h 30mn
Overall bit rate : 1 146 Kbps
Movie name : The Big Kahuna (1999).480p.DvDRip.x264.[Dual Audio] [Hindi+English].by [email protected] [ExD Exclusive]


[font="Book Antiqua">Video[/font]

Format : AVC
Format/Info : Advanced Video Codec
Format profile : [email protected]
Format settings, CABAC : Yes
Format settings, ReFrames : 4 frames
Muxing mode : Header stripping
Codec ID : V_MPEG4/ISO/AVC
Duration : 1h 30mn
Bit rate : 793 Kbps
Width : 720 pixels
Height : 388 pixels
Display aspect ratio : 1.856
Frame rate : 23.976 fps
Color space : YUV
Chroma subsampling : 4:2:0
Bit depth : 8 bits
Scan type : Progressive
Bits/(Pixel*Frame) : 0.118
Stream size : 500 MiB (67%)
Title : [email protected]
Writing library : x264 core 125 r2200 999b753


[font="Book Antiqua">Audio 1[/font]

Format : AC-3
Format/Info : Audio Coding 3
Mode extension : CM (complete main)
Format settings, Endianness : Big
Muxing mode : Header stripping
Codec ID : A_AC3
Duration : 1h 30mn
Bit rate mode : Constant
Bit rate : 224 Kbps
Channel(s) : 2 channels
Channel positions : Front: L R
Sampling rate : 48.0 KHz
Bit depth : 16 bits
Compression mode : Lossy
Delay relative to video : 4s 0ms
Stream size : 145 MiB (20%)
Title : [email protected]
Language : Hindi


[font="Book Antiqua">Audio 2[/font]

Format : AC-3
Format/Info : Audio Coding 3
Mode extension : CM (complete main)
Format settings, Endianness : Big
Muxing mode : Header stripping
Codec ID : A_AC3
Duration : 1h 30mn
Bit rate mode : Constant
Bit rate : 128 Kbps
Channel(s) : 2 channels
Channel positions : Front: L R
Sampling rate : 48.0 KHz
Bit depth : 16 bits
Compression mode : Lossy
Stream size : 83.0 MiB (11%)
Title : [email protected]
Language : English
[/b]












==Team EXD Exclusive==

Original Audio

==First On Net==






[email protected]




Full M0Vi3!!!














D0N3!!!!

Share this topic on FacebookShare this topic on GoogleShare this topic on MySpaceShare this topic on TwitterShare this topic on Yahoo




 

Related Topics





Back to top