+ ShareSpark.net »  :::: Dubbed Zone (Dubbed English in Hindi) » English Movies Dubbed in Hindi
|- The Big Kahuna (1999).480p.DvDRip.x264.[Dual Audio] [Hindi+English]


The Big Kahuna (1999).480p.DvDRip.x264.[Dual Audio] [Hindi+English]

0 Members and 1 Guest are viewing this topic.

September 24, 2013, 07:51:10 PM
  • Junior Mod (Inactive)
  • Elite Forces
  • ***
  • Topic Author
  • Thank You: 383
  • Reputation: 287
  • Activity:
    0%
  • Country: in
  • Posts: 1106
  • Topics: 575
  • Join Date: Feb 2013
  • Learner


:info:
Format : Matroska
Format version : Version 2
File size : 743 MiB
Duration : 1h 30mn
Overall bit rate : 1 146 Kbps
Movie name : The Big Kahuna (1999).480p.DvDRip.x264.[Dual Audio] [Hindi+English].by [email protected] [ExD Exclusive]

Format : AVC
Format/Info : Advanced Video Codec
Format profile : [email protected]
Format settings, CABAC : Yes
Format settings, ReFrames : 4 frames
Muxing mode : Header stripping
Codec ID : V_MPEG4/ISO/AVC
Duration : 1h 30mn
Bit rate : 793 Kbps
Width : 720 pixels
Height : 388 pixels
Display aspect ratio : 1.856
Frame rate : 23.976 fps
Color space : YUV
Chroma subsampling : 4:2:0
Bit depth : 8 bits
Scan type : Progressive
Bits/(Pixel*Frame) : 0.118
Stream size : 500 MiB (67%)
Title : [email protected]
Writing library : x264 core 125 r2200 999b753

Format : AC-3
Format/Info : Audio Coding 3
Mode extension : CM (complete main)
Format settings, Endianness : Big
Muxing mode : Header stripping
Codec ID : A_AC3
Duration : 1h 30mn
Bit rate mode : Constant
Bit rate : 224 Kbps
Channel(s) : 2 channels
Channel positions : Front: L R
Sampling rate : 48.0 KHz
Bit depth : 16 bits
Compression mode : Lossy
Delay relative to video : 4s 0ms
Stream size : 145 MiB (20%)
Title : [email protected]
Language : Hindi

Format : AC-3
Format/Info : Audio Coding 3
Mode extension : CM (complete main)
Format settings, Endianness : Big
Muxing mode : Header stripping
Codec ID : A_AC3
Duration : 1h 30mn
Bit rate mode : Constant
Bit rate : 128 Kbps
Channel(s) : 2 channels
Channel positions : Front: L R
Sampling rate : 48.0 KHz
Bit depth : 16 bits
Compression mode : Lossy
Stream size : 83.0 MiB (11%)
Title : [email protected]
Language : English


:ss:












CHECK SAMPLE



:download:




























Share this topic on FacebookShare this topic on GoogleShare this topic on MySpaceShare this topic on TwitterShare this topic on Yahoo

« Last Edit: September 24, 2013, 07:56:12 PM by мαятιη199631 »


Thanks given by:


September 24, 2013, 08:01:05 PM
Reply #1
  • -= Enjoy Your Life =-
  • Junior Mod (Inactive)
  • Elite Forces
  • ***
  • Thank You: 351
  • Reputation: 239
  • Activity:
    0.6%
  • Country: in
  • Posts: 1195
  • Topics: 206
  • Join Date: Feb 2013
  • =$ Success Never Ends $=

September 24, 2013, 10:22:38 PM
Reply #2
  • Elite Moderator
  • Elite Forces
  • ****
  • Thank You: 247
  • Reputation: 173
  • Activity:
    0%
  • Country: in
  • Posts: 1342
  • Topics: 410
  • Join Date: Feb 2013
  • •?((¯°·._.• β๏$$ •._.·°¯))؟•
  • Expertises:
  • Bollywood Movies
  • Dubbed Movies

September 29, 2013, 01:51:57 PM
Reply #3
  • Senior Member
  • ***
  • Thank You: 0
  • Reputation: 0
  • Activity:
    0%
  • Posts: 231
  • Topics: 0
  • Join Date: Sep 2013
  • ShareSpark Member

September 29, 2013, 06:29:02 PM
Reply #4
  • Special Member
  • ****
  • Thank You: 1
  • Reputation: 0
  • Activity:
    2.8%
  • Posts: 814
  • Topics: 2
  • Join Date: Apr 2012
  • ShareSpark Member

Tags:
 

Related Topics





Back to top