+ ShareSpark.net »  :::: Bollywood Zone » Regional Movies » Punjabi Movies
|- Bailaras 2017 - Punjabi - 720p - WEBHD - AVC - AAC - XMAD - 1GB



  • Bailaras 2017 - Punjabi - 720p - WEBHD - AVC - AAC - XMAD - 1GB 5 1
Currently:  

Bailaras 2017 - Punjabi - 720p - WEBHD - AVC - AAC - XMAD - 1GB

0 Members and 1 Guest are viewing this topic.

January 17, 2018, 01:30:44 AM
  • Semi Newbie
  • **
  • Topic Author
  • Thank You: 19
  • Reputation: 4
  • Activity:
    1%
  • Posts: 34
  • Topics: 10
  • Join Date: Jul 2012
  • ShareSpark Member
:title:
Bailaras 2017 - Punjabi - 720p - WEBHD - AVC - AAC - XMAD - 1GB

Exclusive By

[-=!XMAD!=-]




:imdb:
Quote

 :plot:
Quote
A villager is famous for winning tractor pulling contests.

 :info:
Quote
General
Complete name                            : Bailaras 2017 - Punjabi - 720p - WEBHD - AVC - AAC - XMAD.mp4
Format                                   : MPEG-4
Format profile                           : Base Media / Version 2
Codec ID                                 : mp42 (isom/mp42)
File size                                : 1.02 GiB
Duration                                 : 2 h 12 min
Overall bit rate mode                    : Variable
Overall bit rate                         : 1 096 kb/s
Encoded date                             : UTC 2018-01-14 21:57:34
Tagged date                              : UTC 2018-01-14 21:57:34
gsst                                     : 0
gstd                                     : 7968020

Video
ID                                       : 1
Format                                   : AVC
Format/Info                              : Advanced Video Codec
Format profile                           : [email protected]
Format settings                          : CABAC / 3 Ref Frames
Format settings, CABAC                   : Yes
Format settings, ReFrames                : 3 frames
Codec ID                                 : avc1
Codec ID/Info                            : Advanced Video Coding
Duration                                 : 2 h 12 min
Bit rate                                 : 967 kb/s
Width                                    : 1 280 pixels
Height                                   : 720 pixels
Display aspect ratio                     : 16:9
Frame rate mode                          : Constant
Frame rate                               : 24.000 FPS
Color space                              : YUV
Chroma subsampling                       : 4:2:0
Bit depth                                : 8 bits
Scan type                                : Progressive
Bits/(Pixel*Frame)                       : 0.044
Stream size                              : 918 MiB (88%)
Title                                    : ISO Media file produced by Google Inc. Created on: 01/14/2018.
Encoded date                             : UTC 2018-01-14 21:57:34
Tagged date                              : UTC 2018-01-14 21:57:34
Color range                              : Limited
Color primaries                          : BT.709
Transfer characteristics                 : BT.709
Matrix coefficients                      : BT.709

Audio
ID                                       : 2
Format                                   : AAC
Format/Info                              : Advanced Audio Codec
Format profile                           : LC
Codec ID                                 : mp4a-40-2
Duration                                 : 2 h 12 min
Source duration                          : 2 h 12 min
Bit rate mode                            : Variable
Bit rate                                 : 126 kb/s
Channel(s)                               : 2 channels
Channel positions                        : Front: L R
Sampling rate                            : 44.1 kHz
Frame rate                               : 43.066 FPS (1024 SPF)
Compression mode                         : Lossy
Stream size                              : 119 MiB (11%)
Source stream size                       : 119 MiB (11%)
Title                                    : ISO Media file produced by Google Inc. Created on: 01/14/2018.
Encoded date                             : UTC 2018-01-14 21:57:34
Tagged date                              : UTC 2018-01-14 21:57:34

 :ss:



 :download:

Quote
















Share this topic on FacebookShare this topic on GoogleShare this topic on MySpaceShare this topic on TwitterShare this topic on Yahoo



Thanks given by:


Tags:
 

Related Topics

  Subject / Started by Replies Last post
0 Replies
875 Views
Last post July 23, 2017, 07:07:33 AM
by XMAD222
2 Replies
1151 Views
Last post January 26, 2018, 07:06:03 PM
by shahidimran
2 Replies
571 Views
Last post January 26, 2018, 07:06:27 PM
by shahidimran
1 Replies
344 Views
Last post January 20, 2018, 02:30:42 PM
by hunterz007
1 Replies
329 Views
Last post January 26, 2018, 08:59:00 AM
by Changezi




Back to top